<?xml version="1.0" standalone="no"?>
<!DOCTYPE svg PUBLIC "-//W3C//DTD SVG 1.1//EN" "http://www.w3.org/Graphics/SVG/1.1/DTD/svg11.dtd" >
<svg>
<metadata>
Created by FontForge 20090914 at Wed Apr 27 03:50:39 2016
 By www-data
&#194;&#169; 2006 Microsoft Corporation. All rights reserved.
</metadata>
<defs>
<font id="ComicSansMS" horiz-adv-x="1065" >
  <font-face 
    font-family="Comic Sans MS"
    font-weight="400"
    font-stretch="normal"
    units-per-em="2048"
    panose-1="3 15 7 2 3 3 2 2 2 4"
    ascent="1638"
    descent="-410"
    x-height="1037"
    cap-height="1568"
    bbox="-190.001 -639 2430 2257"
    underline-thickness="175"
    underline-position="-185"
    unicode-range="U+0020-U+FB02"
  />
<missing-glyph horiz-adv-x="1024" 
d="M102 0v1092h820v-1092h-820zM204 102h616v888h-616v-888z" />
    <glyph glyph-name=".notdef" horiz-adv-x="1024" 
d="M102 0v1092h820v-1092h-820zM204 102h616v888h-616v-888z" />
    <glyph glyph-name="space" unicode=" " horiz-adv-x="612" 
 />
    <glyph glyph-name="exclam" unicode="!" horiz-adv-x="487" 
d="M331 1516v-1113c0 -59.333 -29.667 -89 -89 -89s-89 29.667 -89 89c0 27.333 -0.833008 68.166 -2.5 122.499s-2.5 94.833 -2.5 121.5c0 96.667 0.833008 241.5 2.5 434.5s2.5 337.833 2.5 434.5c0 59.333 29.667 89 89 89s89 -29.667 89 -89zM332 23.001
c0 -24 -9.49902 -44.832 -28.499 -62.499s-40.5 -26.5 -64.5 -26.5c-26.667 0 -53.334 17.333 -80.001 52c-26 32.667 -39 62.667 -39 90c0 24 9.5 44.667 28.5 62s40.833 26 65.5 26c26 0 52.667 -17.333 80 -52c25.333 -32.667 38 -62.334 38 -89.001z" />
    <glyph glyph-name="quotedbl" unicode="&#x22;" horiz-adv-x="869" 
d="M294 1116c0 -11.333 1.66699 -27.832 5 -49.499s5 -37.834 5 -48.501c0 -24.667 -9 -45.167 -27 -61.5s-39.667 -24.5 -65 -24.5c-64 0 -96 57 -96 171c0 44 1 110 3 198s3 154 3 198c0 26 8.33301 47.333 25 64s38 25 64 25s47.333 -8.33301 64 -25s25 -38 25 -64
c0 -42.667 -1 -106.5 -3 -191.5s-3 -148.833 -3 -191.5zM687 1495c0 -10.667 -1.00098 -25.667 -3.00098 -45s-3 -33.333 -3 -42l-9 -390c-1.33301 -60 -31 -90 -89 -90c-25.333 0 -46.666 8.33301 -63.999 25s-25.666 37.667 -24.999 63l9 397
c1.33301 52.667 5.66602 89.667 12.999 111c14 40 41.333 60 82 60c26 0 47.333 -8.5 64 -25.5s25 -38.167 25 -63.5z" />
    <glyph glyph-name="numbersign" unicode="#" horiz-adv-x="1726" 
d="M552 577h500l113 415h-488zM365 577l122.002 415.002h-267c-63.333 0 -95 33.333 -95 100c0 50.667 49.333 76 148 76h264c17.333 77.333 43.666 182.666 78.999 315.999c19.333 61.333 58.333 92 117 92c22 0 40.167 -8.83301 54.5 -26.5s21.5 -37.167 21.5 -58.5
c0 -26.667 -8.66699 -70.667 -26 -132c-29.333 -106 -46.333 -169.667 -51 -191h485l93 323c17.333 56.667 50 85 98 85c56 0 84 -26 84 -78c0 -45.333 -27.667 -155.333 -83 -330h195c68 0 102 -25 102 -75c0 -70 -37.667 -105 -113 -105c-10 0 -25.5 0.666992 -46.5 2
s-36.5 2 -46.5 2h-146l-106 -415h204c48.667 0 83 -3.66699 103 -11c34.667 -13.333 52 -40 52 -80c0 -61.333 -29 -92 -87 -92h-322l-90 -325c-18 -64.667 -55.333 -97 -112 -97c-54.667 0 -82 26.333 -82 79c0 39.333 11 96.666 33 171.999
c30.667 104.667 47 161.667 49 171h-500c-20 -78 -55 -192.667 -105 -344c-19.333 -47.333 -52 -71 -98 -71c-53.333 0 -80 26.333 -80 79c0 26 7.66699 63.667 23 113l70 223h-191c-55.333 0 -83 33 -83 99c0 26 11.333 47 34 63c19.333 14 42.666 21 69.999 21h229z" />
    <glyph glyph-name="dollar" unicode="$" horiz-adv-x="1420" 
d="M588 887v359c-132.667 -50 -199 -127.333 -199 -232c0 -64.667 66.333 -107 199 -127zM766 676v-520c70.667 24 129.667 59.333 177 106c52.667 53.333 79 111 79 173c0 116 -85.333 196.333 -256 241zM766 1636v-169h4c64 0 137 -11 219 -33
c107.333 -28.667 161 -65.334 161 -110.001c0 -58.667 -29.667 -88 -89 -88c-26.667 0 -73.5 7.16699 -140.5 21.5s-118.5 21.166 -154.5 20.499v-407c147.333 -13.333 262.666 -61.666 345.999 -144.999c76 -77.333 114 -170.666 114 -279.999
c0 -134 -46.333 -245 -139 -333c-82 -77.333 -189 -128.333 -321 -153v-266c0 -26 -8.5 -47.5 -25.5 -64.5s-38.5 -25.5 -64.5 -25.5c-58.667 0 -88 29.333 -88 88v255c-325.333 4.66699 -488 89 -488 253c0 60 27.667 90 83 90c31.333 0 61.333 -12.333 90 -37
c42.667 -36.667 75 -60.667 97 -72c53.333 -26.667 126 -42 218 -46v567h-8c-103.333 4 -192.666 29.333 -267.999 76c-93.333 57.333 -140 137 -140 239c0 91.333 42.667 177.333 128 258c78.667 74.667 174.667 129 288 163v192c0 26 8.83301 47.667 26.5 65
s39.5 26 65.5 26c57.333 0 86 -28.333 86 -85z" />
    <glyph glyph-name="percent" unicode="%" horiz-adv-x="1680" 
d="M443 1041c-93.333 0 -167 32.334 -221 97.001c-50 60.667 -75 138 -75 232c0 65.333 34 127.666 102 186.999c65.333 56.667 131 85 197 85c96.667 0 173.667 -32 231 -96c54.667 -62 82 -141.667 82 -239c0 -81.333 -34 -147 -102 -197c-60.667 -46 -132 -69 -214 -69z
M1234 1468c-24.667 -40 -51.001 -92.999 -79.001 -158.999l-71 -162l-198 -425l-224 -472c-20.667 -51.333 -54.334 -127 -101.001 -227c-18.667 -35.333 -43.667 -53 -75 -53c-22 0 -41.833 7.83301 -59.5 23.5s-26.5 35.167 -26.5 58.5c0 10 2 21 6 33
c32.667 90 85.334 207.667 158.001 353c86 171.333 142 287.666 168 348.999l270 600c36 88.667 69 149.334 99 182.001c20.667 22.667 42 34 64 34c22.667 0 42.834 -8.5 60.501 -25.5s26.5 -36.833 26.5 -59.5c0 -14.667 -6 -31.334 -18 -50.001zM1260 -18.998
c-90.667 0 -166 26.999 -226 80.999c-62.667 56.667 -94 130.334 -94 221.001c0 98.667 28 180.334 84 245.001c58.667 69.333 136.667 104 234 104c90.667 0 170 -25.333 238 -76c75.333 -56.667 113 -129.334 113 -218.001c0 -102 -32.667 -187 -98 -255
s-149 -102 -251 -102zM442.999 1474c-30.667 0 -59.334 -10.001 -86.001 -30.001c-28.667 -22 -43 -46.667 -43 -74c0 -53.333 10.833 -93.5 32.5 -120.5s53.834 -40.5 96.501 -40.5c36 0 68.667 8 98 24c33.333 18.667 50 43.334 50 74.001c0 56 -12.333 97.833 -37 125.5
s-61.667 41.5 -111 41.5zM1258 464c-48 0 -85.666 -18.001 -112.999 -54.001c-24.667 -33.333 -37 -75.666 -37 -126.999c0 -44.667 14.5 -78.334 43.5 -101.001s72.5 -34 130.5 -34c53.333 0 93.166 15.833 119.499 47.5s39.5 79.167 39.5 142.5
c0 38.667 -20.667 70.334 -62 95.001c-36 20.667 -76.333 31 -121 31z" />
    <glyph glyph-name="ampersand" unicode="&#x26;" horiz-adv-x="1340" 
d="M684 1084c85.333 70.667 128 140.667 128 210c0 30.667 -5.16699 53.5 -15.5 68.5s-25.833 22.5 -46.5 22.5c-12 0 -30.167 -21.167 -54.5 -63.5s-36.5 -70.5 -36.5 -84.5c0 -44.667 8.33301 -95.667 25 -153zM608 811c-114.667 -76.667 -192.667 -135.666 -234 -176.999
c-80.667 -80.667 -121 -165.667 -121 -255c0 -72.667 29 -132 87 -178c54 -42 118.333 -63 193 -63c134.667 0 251 57 349 171c-50.667 75.333 -142 242.666 -274 501.999zM481 1237c0 66.667 27.666 136.669 82.999 210.002c59.333 78 121.333 117 186 117
c76 0 135.667 -26.667 179 -80c40.667 -48.667 61 -112 61 -190c0 -135.333 -80.333 -263.333 -241 -384c51.333 -112.667 130.333 -254.334 237 -425.001c13.333 36.667 23.333 74.667 30 114c10.667 68 18.334 110.333 23.001 127c17.333 54.667 44 82 80 82
c28 0 50 -15 66 -45c13.333 -24.667 20 -52.334 20 -83.001c0 -135.333 -34.667 -260.666 -104 -375.999c111.333 -174.667 167 -278.334 167 -311.001c0 -24 -9.5 -44.5 -28.5 -61.5s-40.5 -25.5 -64.5 -25.5c-30 0 -55.667 17 -77 51l-115 199
c-134 -130.667 -284 -196 -450 -196c-124.667 0 -231 38.333 -319 115c-92.667 80 -139 181.333 -139 304c0 129.333 49 247 147 353c56.667 61.333 160 142 310 242c-34 90 -51 177.667 -51 263z" />
    <glyph glyph-name="quotesingle" unicode="'" horiz-adv-x="795" 
d="M462 1446c0 -20 1.66797 -49.668 5.00098 -89.001s5 -69 5 -89c0 -85.333 -30 -128 -90 -128c-41.333 0 -67.666 14.667 -78.999 44c-5.33301 15.333 -8 47 -8 95c0 18.667 -1.83301 46.5 -5.5 83.5s-5.5 64.833 -5.5 83.5c0 66.667 2.66699 111.667 8 135
c13.333 52.667 42.666 79 87.999 79c25.333 0 46.666 -8.16699 63.999 -24.5s26 -37.166 26 -62.499c0 -14 -1.33301 -35.167 -4 -63.5s-4 -49.5 -4 -63.5z" />
    <glyph glyph-name="parenleft" unicode="(" horiz-adv-x="750" 
d="M696 1513c0 -23.333 -20.667 -57.333 -62 -102l-91 -92c-74 -84 -132 -204 -174 -360c-36.667 -136 -55 -269.667 -55 -401c0 -338.667 76.667 -587 230 -745l93 -72c38.667 -30.667 58 -61 58 -91c0 -22 -8.66699 -41.167 -26 -57.5s-37.333 -24.5 -60 -24.5
c-20 0 -44 7.66699 -72 23c-282 158 -423 488 -423 990c0 180.667 36.333 363.667 109 549c81.333 206 188 355.333 320 448c26.667 18.667 47.667 28 63 28c24 0 45 -9.5 63 -28.5s27 -40.5 27 -64.5z" />
    <glyph glyph-name="parenright" unicode=")" horiz-adv-x="750" 
d="M696 581c0 -502 -141.332 -832 -423.999 -990c-27.333 -15.333 -51 -23 -71 -23c-22.667 0 -42.667 8.16699 -60 24.5s-26 35.5 -26 57.5c0 30 19.333 60.333 58 91l93 72c153.333 158 230 406.333 230 745c0 131.333 -18.333 265 -55 401
c-42.667 156 -100.667 276 -174 360l-91 92c-41.333 44.667 -62 78.667 -62 102c0 24 8.83301 45.5 26.5 64.5s38.5 28.5 62.5 28.5c15.333 0 36.666 -9.33301 63.999 -28c132 -92.667 238.667 -242 320 -448c72.667 -185.333 109 -368.333 109 -549z" />
    <glyph glyph-name="asterisk" unicode="*" horiz-adv-x="1085" 
d="M47 1315c0 24.667 8.66699 46.667 26 66s38 29 62 29c16 0 106.333 -32.333 271 -97c-5.33301 92.667 -8 156.667 -8 192c0 26 8.5 47.333 25.5 64s38.167 25 63.5 25c26 0 47.5 -8.33301 64.5 -25s25.5 -38 25.5 -64c0 -36.667 2 -93 6 -169c160 24 258 36 294 36
c24.667 0 45.167 -8.83301 61.5 -26.5s24.5 -39.167 24.5 -64.5c0 -46.667 -25 -75.334 -75 -86.001c-46.667 -10 -129 -22 -247 -36c38.667 -35.333 80.667 -80.666 126 -135.999c59.333 -73.333 89 -124.333 89 -153c0 -24 -9.33301 -44.833 -28 -62.5
s-40 -26.5 -64 -26.5c-25.333 0 -48.333 12 -69 36c-40.667 54.667 -107 133 -199 235c-137.333 -155.333 -230.333 -233 -279 -233c-24 0 -45.167 9.33301 -63.5 28s-27.5 40 -27.5 64c0 22.667 10.667 44.667 32 66c42.667 36 104.667 93.667 186 173
c-54.667 17.333 -134.667 46.333 -240 87c-38 16.667 -57 42.667 -57 78z" />
    <glyph glyph-name="plus" unicode="+" horiz-adv-x="984" 
d="M913 643c0 -24.667 -8.16504 -46.167 -24.498 -64.5s-36.833 -27.5 -61.5 -27.5c-8 0 -20 1.33301 -36 4s-28.333 4 -37 4l-100 -2c-40.667 -1.33301 -74 -1.33301 -100 0v-235c0 -60 -29.667 -90 -89 -90c-29.333 0 -51.5 7.5 -66.5 22.5s-22.5 37.5 -22.5 67.5l-1 115
l-1 116c-80.667 -4.66699 -137.667 -7 -171 -7c-103.333 0 -155 30.667 -155 92c0 43.333 18.333 70.333 55 81c12.667 3.33301 46 5 100 5c33.333 0 90.333 2.33301 171 7l-1 117c0 60.667 3 102.667 9 126c6.66699 24 17 42 31 54s32 18 54 18
c25.333 0 46.833 -8.16699 64.5 -24.5s26.5 -37.166 26.5 -62.499c0 -11.333 -1.16699 -29.333 -3.5 -54s-3.5 -43.334 -3.5 -56.001l1 -114l75 -3c13.333 0 33.666 0.833008 60.999 2.5s47.666 2.5 60.999 2.5c109.333 0 164 -31.333 164 -94z" />
    <glyph glyph-name="comma" unicode="," horiz-adv-x="567" 
d="M285 -344c-23.333 0 -43.667 9 -61 27s-26 38.667 -26 62c0 19.333 20.667 76.666 62 171.999c36 82.667 63.667 141.667 83 177c17.333 32 40.333 48 69 48c24 0 44.5 -9.16699 61.5 -27.5s25.5 -39.166 25.5 -62.499c0 -16 -47.333 -130 -142 -342
c-15.333 -36 -39.333 -54 -72 -54z" />
    <glyph glyph-name="hyphen" unicode="-" horiz-adv-x="853" 
d="M679 475c-90.667 -9.33301 -252 -14 -484 -14c-56 0 -84 26 -84 78s28 78 84 78c52.667 0 131.667 2.33301 237 7s184.333 7 237 7c59.333 0 89 -26 89 -78c0 -46 -26.333 -72 -79 -78z" />
    <glyph glyph-name="period" unicode="." horiz-adv-x="510" 
d="M267 -93c-34.667 0 -64 12 -88 36s-36 53.333 -36 88c0 34 12 63.167 36 87.5s53.333 36.5 88 36.5c34 0 63.167 -12.167 87.5 -36.5s36.5 -53.5 36.5 -87.5c0 -34.667 -12.167 -64 -36.5 -88s-53.5 -36 -87.5 -36z" />
    <glyph glyph-name="slash" unicode="/" horiz-adv-x="1048" 
d="M177 -90c-24.667 0 -46.333 8.33008 -65 24.9971s-28 37.334 -28 62.001c0 10.667 2.33301 22 7 34c52 143.333 150 349.833 294 619.5s242.333 476.5 295 620.5c87.333 238.667 153.333 357 198 355c24.667 -0.666992 46.334 -9.5 65.001 -26.5s28 -37.5 28 -61.5
c0 -15.333 -3.66699 -33.666 -11 -54.999l-112 -272c-44.667 -123.333 -108.334 -265.666 -191.001 -426.999l-218 -414l-181 -401c-18 -39.333 -45 -59 -81 -59z" />
    <glyph glyph-name="zero" unicode="0" horiz-adv-x="1250" 
d="M611 -39c-202.667 0 -350.668 92.667 -444.001 278c-70.667 142.667 -106 328.334 -106 557.001c0 193.333 46 362 138 506c108.667 168.667 256.334 253 443.001 253c175.333 0 312 -74.667 410 -224c84.667 -129.333 127 -287 127 -473
c0 -298.667 -47.333 -522.834 -142 -672.501s-236.667 -224.5 -426 -224.5zM640.999 1362c-124 0 -222.332 -63.001 -294.999 -189.001c-60.667 -105.333 -91 -225.666 -91 -360.999c0 -219.333 29.667 -384 89 -494s148.333 -165 267 -165
c141.333 0 242.666 80.667 303.999 242c42.667 112 64 254 64 426c0 180.667 -28.167 316 -84.5 406s-140.833 135 -253.5 135z" />
    <glyph glyph-name="one" unicode="1" horiz-adv-x="922" 
d="M704 -1l-198.998 -0.00488281l-198 1c-46.667 0 -79.334 3 -98.001 9c-34 12 -51 37.333 -51 76c0 67.333 52.333 101 157 101l48 -1l41 -2c0 32 -2.83301 79.333 -8.5 142s-8.5 109.667 -8.5 141c0 84.667 7.66699 213.334 23 386.001c14.667 170 21.667 299 21 387
c-89.333 -69.333 -146.333 -104 -171 -104c-26.667 0 -49.834 10 -69.501 30s-29.5 43 -29.5 69c0 31.333 28.667 69.333 86 114c36 25.333 87 66 153 122c58.667 59.333 114.667 89 168 89c44.667 0 67 -25.667 67 -77c0 -15.333 -2 -38.166 -6 -68.499
s-6 -53.166 -6 -68.499c0 -22 1.16699 -55.333 3.5 -100s3.5 -78 3.5 -100c0 -76 -8 -189.333 -24 -340s-24 -263.667 -24 -339c0 -38.667 2.66699 -85.667 8 -141s8.33301 -100.666 9 -135.999l105 2c28 0 51.167 -9.16699 69.5 -27.5s27.5 -41.166 27.5 -68.499
c0 -28 -9.16699 -51 -27.5 -69s-41.5 -27 -69.5 -27z" />
    <glyph glyph-name="two" unicode="2" horiz-adv-x="1250" 
d="M1008 -2c-16.667 0 -40.1689 5.16602 -70.502 15.499s-53.5 15.5 -69.5 15.5c-34 0 -85 -2 -153 -6s-119.333 -6 -154 -6c-26 0 -64.5 -3.33301 -115.5 -10s-89.5 -10 -115.5 -10c-7.33301 0 -18 1.33301 -32 4s-24.667 4 -32 4c-46 0 -76 22.333 -90 67
c-8 23.333 -12 63.333 -12 120c0 155.333 42.333 280.333 127 375c38.667 43.333 143 123.333 313 240c95.333 65.333 159 116.333 191 153c57.333 64 86 139 86 225c0 42.667 -27.667 80.667 -83 114c-48.667 30 -96.334 45 -143.001 45
c-61.333 0 -119.666 -17.667 -174.999 -53l-143 -112c-28.667 -22.667 -51.667 -34 -69 -34c-68.667 0 -103 27.333 -103 82c0 31.333 12.667 58.333 38 81c78 73.333 145.667 126.333 203 159c80.667 46 163.667 69 249 69c108 0 204.333 -29.333 289 -88
c94.667 -66 142 -150.667 142 -254c0 -68 -9.66699 -130.667 -29 -188s-48.666 -109.666 -87.999 -156.999c-50 -60 -134.667 -127 -254 -201c-125.333 -78.667 -207.666 -138.334 -246.999 -179.001c-74 -76.667 -110.333 -169.667 -109 -279l206 19
c141.333 8 242.333 12 303 12c50.667 0 98.667 -8.66699 144 -26c60 -23.333 90 -55.666 90 -96.999c0 -26 -9 -49.167 -27 -69.5s-40.333 -30.5 -67 -30.5z" />
    <glyph glyph-name="three" unicode="3" horiz-adv-x="1250" 
d="M605 -46c-100.667 0 -191.001 20.999 -271.001 62.999c-90 48.667 -150.667 117 -182 205c-4 12 -6 23.667 -6 35c0 26.667 10.167 48.834 30.5 66.501s43.833 26.5 70.5 26.5s49.667 -12.333 69 -37l46 -69c24 -32.667 56.333 -57.167 97 -73.5
s89.334 -24.5 146.001 -24.5c72.667 0 136.334 22.667 191.001 68c58 48 87 106.667 87 176c0 100.667 -37 181 -111 241c-65.333 52 -152 83.667 -260 95c-74 7.33301 -111 37.333 -111 90c0 39.333 29 69.333 87 90l239 59c46 16.667 80.667 39.167 104 67.5
s35.333 62.833 36 103.5c1.33301 58.667 -21.334 106 -68.001 142c-48.667 37.333 -117 56 -205 56c-45.333 0 -89.333 -11 -132 -33l-113 -71c-22 -14 -39.667 -21 -53 -21c-26.667 0 -49.5 10.167 -68.5 30.5s-28.5 43.5 -28.5 69.5c0 52.667 51 103.334 153 152.001
c88.667 43.333 161.667 65 219 65c143.333 0 257 -31.667 341 -95c90 -68 135 -165 135 -291c0 -156.667 -63.333 -260 -190 -310c-11.333 -4.66699 -24.333 -9.33398 -39 -14.001c88.667 -32.667 155 -81.5 199 -146.5s66 -146.167 66 -243.5
c0 -131.333 -46.333 -242.833 -139 -334.5s-205.667 -137.5 -339 -137.5z" />
    <glyph glyph-name="four" unicode="4" horiz-adv-x="1250" 
d="M964 437l-0.000976562 -370c0 -62 -30.333 -93 -91 -93c-70.667 0 -106 48.333 -106 145c0 12 0.666992 29 2 51s2 37 2 45l-1 227l-441 11c-91.333 0 -154.666 3 -189.999 9c-60.667 10 -91 33.667 -91 71c0 30 18.333 68 55 114l86 102l492 718
c44.667 62 101.334 93 170.001 93c75.333 0 113 -32.667 113 -98v-831c11.333 0.666992 25 1 41 1c122.667 0 184 -33 184 -99c0 -48 -25.333 -78.333 -76 -91c-22.667 -6 -72.334 -7.66699 -149.001 -5zM769.999 1283c-178 -284 -317 -496.667 -417 -638l417 -10v648z" />
    <glyph glyph-name="five" unicode="5" horiz-adv-x="1250" 
d="M562 -63c-189.333 0 -328.668 69.999 -418.001 209.999c-12 19.333 -18 38 -18 56c0 26 10.333 48.5 31 67.5s44 28.5 70 28.5c27.333 0 53.333 -14.667 78 -44c35.333 -42.667 62 -70 80 -82c43.333 -29.333 102.333 -44 177 -44c115.333 0 211 44 287 132
c72.667 84 109 185 109 303c0 97.333 -16 176.333 -48 237c-41.333 76.667 -105 115 -191 115c-71.333 0 -129.666 -9.66699 -174.999 -29c-36 -15.333 -72.333 -41.666 -109 -78.999l-109 -119c-29.333 -30 -59.333 -45 -90 -45c-26.667 0 -49.334 9.5 -68.001 28.5
s-28 41.833 -28 68.5c0 13.333 5.33301 72.666 16 177.999c22.667 210 34 348 34 414c0 23.333 -5.83301 48.833 -17.5 76.5s-17.5 48.167 -17.5 61.5c0 40.667 35 61 105 61c13.333 0 33.5 -1.16699 60.5 -3.5s47.167 -3.5 60.5 -3.5c38.667 0 96.667 1.33301 174 4
s135.333 4 174 4c18 0 45.333 -0.666992 82 -2s64 -2 82 -2c12.667 0 31 2.5 55 7.5s42 7.5 54 7.5c26 0 49 -9.66699 69 -29s30 -41.666 30 -66.999c0 -74.667 -79 -112 -237 -112c-20.667 0 -46.667 0.666992 -78 2s-50.333 2 -57 2l-169 -3l-169 -5
c0 -30 -12.333 -141 -37 -333c91.333 72.667 213 109 365 109c146.667 0 258.667 -57.333 336 -172c65.333 -97.333 98 -221.333 98 -372c0 -180 -52.667 -328.333 -158 -445c-109.333 -121.333 -253.666 -182 -432.999 -182z" />
    <glyph glyph-name="six" unicode="6" horiz-adv-x="1250" 
d="M597 -72c-174 0 -302 63.667 -384 191c-68 104.667 -102 244.334 -102 419.001c0 329.333 133.667 615 401 857l94 95c46 44 80.667 66 104 66c26.667 0 50 -9.5 70 -28.5s30.333 -41.5 31 -67.5c1.33301 -24 -32.667 -70.333 -102 -139l-204 -199
c-54 -54.667 -100.333 -137.334 -139 -248.001c58 26.667 108.667 46.5 152 59.5s79 19.5 107 19.5c156 0 275.667 -41.667 359 -125s125 -201 125 -353c0 -159.333 -45 -289.333 -135 -390c-94 -104.667 -219.667 -157 -377 -157zM597 749
c-57.333 0 -108.667 -10.001 -154 -30.001c-17.333 -8 -61 -33.667 -131 -77c-4 -35.333 -6 -70 -6 -104c0 -119.333 20 -216.666 60 -291.999c50.667 -96 129.667 -144 237 -144c100.667 0 178.667 36 234 108c51.333 66.667 77 155 77 265
c0 91.333 -26.333 159.833 -79 205.5s-132 68.5 -238 68.5z" />
    <glyph glyph-name="seven" unicode="7" horiz-adv-x="1250" 
d="M1154 1306l-90.998 -105.999c-86.667 -101.333 -166.334 -224 -239.001 -368l-182 -399c-12.667 -29.333 -40.667 -106.333 -84 -231c-34.667 -98.667 -67 -172.334 -97 -221.001c-18.667 -31.333 -45.334 -47 -80.001 -47c-26.667 0 -50.167 9.33301 -70.5 28
s-30.5 41 -30.5 67c0 25.333 21.333 90.333 64 195l225 551c99.333 218 201.333 386 306 504l19 21l-502 10l-225 6c-64.667 6 -97 38 -97 96c0 28 9.33301 51 28 69s42 27 70 27c84 0 210.167 -2.66699 378.5 -8s294.5 -8 378.5 -8h183c70.667 0 106 -21 106 -63
c0 -31.333 -20 -72.333 -60 -123z" />
    <glyph glyph-name="eight" unicode="8" horiz-adv-x="1250" 
d="M614 -54c-140.667 0 -254.334 30.666 -341.001 91.999c-98.667 69.333 -149 171 -151 305c-2.66699 215.333 73 362 227 440c-118.667 72 -178 174.333 -178 307c0 126 45.667 230.667 137 314c87.333 80 193.333 120.667 318 122c280 2.66699 420 -135.666 420 -414.999
c0 -80 -16 -141.667 -48 -185c-26 -36 -76.333 -73 -151 -111c99.333 -50 169 -104 209 -162c46.667 -68 70 -161.667 70 -281c0 -136 -50.333 -242.667 -151 -320c-93.333 -70.667 -213.666 -106 -360.999 -106zM623 1347c-86 0 -151.667 -24.335 -197 -73.002
c-40.667 -45.333 -60.667 -106.666 -60 -183.999c0.666992 -93.333 77.334 -159.666 230.001 -198.999c80 23.333 137.333 46.666 172 69.999c55.333 37.333 83 87.333 83 150c0 90.667 -20.333 154.334 -61 191.001c-34.667 30 -90.334 45 -167.001 45zM605 713.997
c-106 -49.333 -176.667 -92 -212 -128c-55.333 -55.333 -81.333 -133.333 -78 -234c2.66699 -83.333 41 -145.666 115 -186.999c54 -29.333 115.333 -44 184 -44c117.333 0 199.333 27.667 246 83c37.333 44 56 110.667 56 200c0 87.333 -34 157.666 -102 210.999
c-45.333 36.667 -115 69.667 -209 99z" />
    <glyph glyph-name="nine" unicode="9" horiz-adv-x="1250" 
d="M784 121c-48.667 -36 -126.668 -79.334 -234.001 -130.001c-119.333 -57.333 -202.333 -86 -249 -86c-27.333 0 -49.833 10 -67.5 30s-26.5 43.333 -26.5 70c0 39.333 22.667 69 68 89l167 57c103.333 42 185 90.333 245 145s114.667 132.334 164 233.001l43 86
c-37.333 -21.333 -85.333 -41 -144 -59s-106.334 -27 -143.001 -27c-126 0 -235 35 -327 105c-112 85.333 -168 206.666 -168 363.999c0 186 57.333 325.667 172 419c98 79.333 226.667 119 386 119c122.667 0 232.667 -50 330 -150c102.667 -106 154.334 -234 155.001 -384
c0.666992 -169.333 -30.666 -333.666 -93.999 -492.999c-68 -172 -160.333 -301.333 -277 -388zM641.999 1365c-112 0 -196.166 -28.999 -252.499 -86.999s-84.833 -145.333 -85.5 -262c0 -98 34.333 -174 103 -228c60.667 -47.333 137 -71 229 -71c53.333 0 109 16 167 48
c26.667 14.667 74.667 47.667 144 99c8.66699 58 13 104 13 138c-0.666992 83.333 -35.834 164.666 -105.501 243.999s-140.5 119 -212.5 119z" />
    <glyph glyph-name="colon" unicode=":" horiz-adv-x="612" 
d="M414 226c0 -30 -9.66699 -54.667 -29 -74s-44 -29 -74 -29s-54.333 9.66699 -73 29c-19.333 19.333 -29 44 -29 74c0 12.667 -2.16699 31.167 -6.5 55.5s-6.5 42.5 -6.5 54.5c0 28 10.5 51.333 31.5 70s45.833 28 74.5 28c74.667 0 112 -69.333 112 -208zM397 956
c0 -30 -9.5 -54.668 -28.5 -74.001s-43.5 -29 -73.5 -29s-54.667 9.66699 -74 29s-29 44 -29 74c0 8 -1.5 20.167 -4.5 36.5s-4.5 28.833 -4.5 37.5c0 28.667 10 52.334 30 71.001s44.667 28 74 28c73.333 0 110 -57.667 110 -173z" />
    <glyph glyph-name="semicolon" unicode=";" horiz-adv-x="612" 
d="M411 950c0 -29.333 -9.66895 -53.666 -29.002 -72.999s-43.666 -29 -72.999 -29s-53.666 9.66699 -72.999 29s-29 43.666 -29 72.999c0 8.66699 -1.66699 21.167 -5 37.5s-5 28.5 -5 36.5c0 28.667 10.167 52.5 30.5 71.5s44.833 28.5 73.5 28.5
c73.333 0 110 -58 110 -174zM170.998 -194c-60 0 -90 31.333 -90 94c0 43.333 28.667 107.333 86 192c59.333 88 108.333 132 147 132c24 0 45.333 -9 64 -27s28 -39 28 -63s-23.333 -63.333 -70 -118c-48 -57.333 -73.667 -99 -77 -125c-6.66699 -56.667 -36 -85 -88 -85z
" />
    <glyph glyph-name="semicolon" unicode="&#x37e;" horiz-adv-x="612" 
d="M411 950c0 -29.333 -9.66895 -53.666 -29.002 -72.999s-43.666 -29 -72.999 -29s-53.666 9.66699 -72.999 29s-29 43.666 -29 72.999c0 8.66699 -1.66699 21.167 -5 37.5s-5 28.5 -5 36.5c0 28.667 10.167 52.5 30.5 71.5s44.833 28.5 73.5 28.5
c73.333 0 110 -58 110 -174zM170.998 -194c-60 0 -90 31.333 -90 94c0 43.333 28.667 107.333 86 192c59.333 88 108.333 132 147 132c24 0 45.333 -9 64 -27s28 -39 28 -63s-23.333 -63.333 -70 -118c-48 -57.333 -73.667 -99 -77 -125c-6.66699 -56.667 -36 -85 -88 -85z
" />
    <glyph glyph-name="less" unicode="&#x3c;" horiz-adv-x="781" 
d="M298 614c37.333 -27.333 83.334 -69.665 138.001 -126.998c64.667 -67.333 109 -111.333 133 -132s36 -43.334 36 -68.001s-9 -46.334 -27 -65.001s-39 -28 -63 -28c-18.667 0 -37.334 7 -56.001 21c-26.667 19.333 -83.667 74.666 -171 165.999
c-66.667 70 -131 117 -193 141c-50.667 18.667 -76 46.334 -76 83.001c0 33.333 23 61 69 83c62 30 130 84 204 162c103.333 108 164.833 170.167 184.5 186.5s39.5 24.5 59.5 24.5c24 0 45.167 -9.16699 63.5 -27.5s27.5 -39.833 27.5 -64.5c0 -22.667 -10 -44 -30 -64
c-64 -68 -163.667 -165 -299 -291z" />
    <glyph glyph-name="equal" unicode="=" horiz-adv-x="1045" 
d="M324 999l466.999 -0.999023c59.333 0 89 -29.667 89 -89s-29.667 -89 -89 -89l-468 1c-15.333 0 -38.166 -0.833008 -68.499 -2.5s-52.833 -2.5 -67.5 -2.5c-26 0 -47.167 8.66699 -63.5 26s-24.5 38.666 -24.5 63.999c0 48 28 77.333 84 88
c14.667 3.33301 61.667 5 141 5zM380.999 462.001c44 0 110 -1.00098 198 -3.00098s154 -3 198 -3c59.333 0 89 -29.667 89 -89s-29.667 -89 -89 -89c-44 0 -110 1 -198 3s-154 3 -198 3c-20 0 -50 -1.33301 -90 -4s-69.667 -4 -89 -4c-61.333 0 -92 29.667 -92 89
c0 54.667 28.667 84.334 86 89.001c74 5.33301 135.667 8 185 8z" />
    <glyph glyph-name="greater" unicode="&#x3e;" horiz-adv-x="781" 
d="M736 663c0 -24 -12.333 -47.668 -37 -71.001c-158.667 -147.333 -325 -276.666 -499 -387.999c-18.667 -12 -36.334 -18 -53.001 -18c-24 0 -44.833 9.5 -62.5 28.5s-26.5 40.5 -26.5 64.5c0 26.667 13 50 39 70l388 296
c-59.333 39.333 -132.666 99.666 -219.999 180.999c-106.667 100.667 -160 170.334 -160 209.001c0 24 9.33301 45 28 63s40 27 64 27c24.667 0 47 -11.333 67 -34c152 -170 289.667 -287 413 -351c39.333 -20 59 -45.667 59 -77z" />
    <glyph glyph-name="question" unicode="?" horiz-adv-x="1073" 
d="M371 308c-27.333 0 -51.334 10.5 -72.001 31.5s-31 44.833 -31 71.5c0 46 42.667 102.667 128 170l239 180c86 74 129 141.667 129 203c0 77.333 -36.333 148.666 -109 213.999c-70 63.333 -144.333 95 -223 95c-42 0 -95.333 -21.5 -160 -64.5
s-104.667 -64.5 -120 -64.5c-27.333 0 -50.833 11 -70.5 33s-29.5 46.667 -29.5 74c0 52.667 51 105 153 157c91.333 46.667 167 70 227 70c134 0 255.667 -52.333 365 -157s164 -223.667 164 -357c0 -97.333 -31.333 -183.666 -94 -258.999
c-37.333 -45.333 -106.666 -104 -207.999 -176c-102 -74 -173 -134 -213 -180c-23.333 -27.333 -48.333 -41 -75 -41zM315.999 -72c-29.333 0 -55.834 9.83398 -79.501 29.501s-35.5 43.5 -35.5 71.5c0 41.333 11 78.666 33 111.999c24.667 37.333 56.334 56 95.001 56
c64 0 96 -39.333 96 -118c0 -36.667 -8.66699 -69.667 -26 -99c-21.333 -34.667 -49 -52 -83 -52z" />
    <glyph glyph-name="at" unicode="@" horiz-adv-x="1907" 
d="M1306 412c-70.667 0 -131.671 10.3311 -183.004 30.998s-92.666 51.334 -123.999 92.001c-36 -35.333 -71.167 -62 -105.5 -80s-67.833 -27 -100.5 -27c-74 0 -143.833 30.167 -209.5 90.5s-98.5 126.5 -98.5 198.5c0 123.333 48.5 236 145.5 338s207.167 153 330.5 153
c28 0 51.333 -10.333 70 -31s28 -45.667 28 -75c0 -40 -33.333 -69.667 -100 -89c-88.667 -25.333 -151.334 -54.333 -188.001 -87c-54 -47.333 -81 -117 -81 -209c0 -19.333 9 -38 27 -56c20.667 -20 46.334 -29.333 77.001 -28c58 2.66699 111.667 56.667 161 162
c44.667 92 84.334 138 119.001 138c28 0 50.667 -10.333 68 -31s26 -46 26 -76c0 -13.333 -2.16699 -33.333 -6.5 -60s-6.5 -46.667 -6.5 -60c0 -43.333 18.667 -70.666 56 -81.999c14.667 -4.66699 46.334 -7 95.001 -7c91.333 0 155.333 22.333 192 67
c33.333 40 50 106.333 50 199c0 163.333 -65.667 296.666 -197 399.999c-120 94.667 -263.333 142 -430 142c-194 0 -346 -73.333 -456 -220c-99.333 -130.667 -149 -295 -149 -493c0 -182.667 58.333 -336.667 175 -462c121.333 -130.667 277.333 -196 468 -196
c54 0 115 10.333 183 31l175 65c29.333 10.667 48.333 16 57 16c27.333 0 51 -10.833 71 -32.5s30 -46.834 30 -75.501c0 -63.333 -71 -114.666 -213 -153.999c-107.333 -29.333 -207.666 -44 -300.999 -44c-94 0 -190.167 18.167 -288.5 54.5s-182.5 84.833 -252.5 145.5
c-206.667 178.667 -310 396 -310 652s70.667 470 212 642c150 184 349.667 276 599 276c225.333 0 418.333 -67.667 579 -203c168.667 -143.333 253 -324.666 253 -543.999c0 -150 -36.667 -265.333 -110 -346c-76.667 -83.333 -189 -125 -337 -125z" />
    <glyph glyph-name="A" unicode="A" horiz-adv-x="1498" 
d="M1250 -30c-61.333 0 -114.666 78.667 -159.999 236c-17.333 60 -39 165 -65 315c-68 -9.33301 -157 -26 -267 -50l-266 -55c-33.333 -87.333 -90.333 -215 -171 -383c-21.333 -37.333 -50.333 -56 -87 -56c-26.667 0 -50.5 9.66699 -71.5 29s-31.5 43.333 -31.5 72
c0 32 50.333 153.667 151 365c-11.333 17.333 -17 37.333 -17 60c0 54 32.667 88.667 98 104c76 142.667 172 306.667 288 492c158 252.667 256.333 379 295 379c52.667 0 88.667 -36.667 108 -110l63 -336l149 -695l57 -158c19.333 -54 29 -90 29 -108
c0 -28.667 -10.333 -52.667 -31 -72s-44.334 -29 -71.001 -29zM897 1113l-286 -461c80.667 20.667 203 45.667 367 75z" />
    <glyph glyph-name="B" unicode="B" horiz-adv-x="1291" 
d="M886 40c-150 -58.667 -341.664 -87.999 -574.997 -87.999c-28.667 0 -55.834 13.5 -81.501 40.5s-38.5 54.833 -38.5 83.5v291c0 95.333 6 231.333 18 408c13.333 190.667 20.666 328.667 21.999 414c-0.666992 61.333 3 152.666 11 273.999
c4.66699 33.333 15.667 55.333 33 66c90.667 28 193.667 42 309 42c117.333 0 230 -40 338 -120c124.667 -92 187 -205.667 187 -341c0 -171.333 -66.667 -306.333 -200 -405c100 -42.667 174.833 -90 224.5 -142s74.5 -108.667 74.5 -170
c0 -80.667 -43.667 -158.667 -131 -234c-60.667 -53.333 -124.334 -93 -191.001 -119zM584.003 1367c-72.667 0 -123.668 -2.33203 -153.001 -6.99902l-2 -175l-20 -387c94.667 -8 145.334 -11.667 152.001 -11c100.667 8 183 39.333 247 94
c68.667 59.333 103 135.666 103 228.999c0 63.333 -35 122 -105 176s-144 81 -222 81zM696.002 566.002l-106 17.001c-8.66699 0 -21.834 -0.5 -39.501 -1.5s-31.167 -1.5 -40.5 -1.5c-36 0 -74.333 3 -115 9c-4 -84 -6 -159 -6 -225v-207c174.667 6 317 30.667 427 74
c46.667 18 91.334 46 134.001 84c40.667 34.667 61 60.667 61 78c0 31.333 -42.667 66.666 -128 105.999c-64 30 -126.333 52.333 -187 67z" />
    <glyph glyph-name="C" unicode="C" horiz-adv-x="1234" 
d="M1104 1122c-42.667 0 -74.666 25.001 -95.999 75.001c-18.667 42.667 -36 68.667 -52 78c-14 7.33301 -48.667 11 -104 11c-96.667 0 -204 -74 -322 -222c-160 -198.667 -240 -387 -240 -565c0 -86 27.667 -160 83 -222c56.667 -64 125 -96 205 -96
c68.667 0 137.667 17.667 207 53c38.667 20 98 59.333 178 118c38 28 66.667 42 86 42c28.667 0 52.667 -10.833 72 -32.5s29 -45.834 29 -72.501c0 -30 -12.667 -56.333 -38 -79c-176 -156 -354 -234 -534 -234c-138 0 -254.667 53 -350 159c-92 102.667 -138 224 -138 364
c0 226 94.667 457.667 284 695c158 198 317.333 297 478 297c32.667 0 62 -1.5 88 -4.5s49 -7.83301 69 -14.5c23.333 34 53.666 51 90.999 51c46 0 75 -30.333 87 -91c10.667 -54 16 -120.333 16 -199c0 -27.333 -7.33301 -51.333 -22 -72c-18 -26 -43.667 -39 -77 -39z
" />
    <glyph glyph-name="D" unicode="D" horiz-adv-x="1478" 
d="M1076 7c-103.333 -70.667 -251.664 -106 -444.997 -106c-48.667 0 -104.334 7.66699 -167.001 23c-75.333 18 -132 41.333 -170 70h-10c-28.667 0 -52.667 10 -72 30s-29 44.333 -29 73c0 70 3.16699 174.833 9.5 314.5s9.5 244.5 9.5 314.5c0 78 -1.5 194.5 -4.5 349.5
s-4.5 271.5 -4.5 349.5c0 27.333 14 56 42 86s56 45 84 45c16 0 69.333 -22.333 160 -67c102.667 -50 162 -77.667 178 -83c189.333 -64.667 350.666 -164 483.999 -298c156.667 -158 235 -331.667 235 -521c0 -114 -26.833 -223.333 -80.5 -328
s-126.834 -188.667 -219.501 -252zM866.002 1065c-68 44.667 -225 121.333 -471 230l5 -288l3 -287l-16 -546c4.66699 -2 11.667 -6.33301 21 -13c58.667 -39.333 132.667 -59 222 -59c152 0 262.667 23.333 332 70c64.667 44 116.167 103.167 154.5 177.5
s57.5 151.833 57.5 232.5c0 188 -102.667 349 -308 483z" />
    <glyph glyph-name="E" unicode="E" horiz-adv-x="1279" 
d="M1115 1346c-9.33301 0 -19.6611 1.66406 -30.9941 4.99707c-112.667 32 -221.334 48 -326.001 48c-54.667 0 -114.334 -5 -179.001 -15s-134.334 -25.333 -209.001 -46c6 -43.333 9 -78 9 -104c0 -92.667 -5.66699 -220 -17 -382l438 42
c128.667 13.333 207.667 20 237 20s54 -9.33301 74 -28s30 -43.667 30 -75c0 -60.667 -30.667 -94.667 -92 -102l-238 -21l-462 -42c-2.66699 -47.333 -4.83398 -92.166 -6.50098 -134.499s-2.5 -81.833 -2.5 -118.5c0 -147.333 10.667 -234 32 -260
c16 -18.667 68.333 -28 157 -28c41.333 0 103.5 1.16699 186.5 3.5s145.5 3.5 187.5 3.5c13.333 0 33 2.16699 59 6.5s45.333 6.5 58 6.5c70.667 0 106 -34.667 106 -104c0 -56 -28.333 -89.667 -85 -101c-62.667 -12.667 -198.334 -19 -407.001 -19
c-206.667 0 -339.334 27.333 -398.001 82c-64 59.333 -96 196 -96 410c0 42.667 1 89.334 3 140.001s4.66699 105.334 8 164.001c-7.33301 15.333 -11 31.666 -11 48.999c0 22.667 6.33301 43 19 61c13.333 192.667 20 335 20 427c0 24.667 -3.33301 60.834 -10 108.501
s-10 83.834 -10 108.501c0 79.333 33.333 119 100 119c28 0 52 -9.66699 72 -29c80 21.333 155.5 37.333 226.5 48s137.833 16 200.5 16c162 0 291.333 -19.333 388 -58c44.667 -18 67 -50 67 -96c0 -26.667 -8.66699 -50.334 -26 -71.001
c-19.333 -22.667 -43.333 -34 -72 -34z" />
    <glyph glyph-name="F" unicode="F" horiz-adv-x="1243" 
d="M1106 1314c-12 0 -24.667 2.66699 -38 8c-82.667 30.667 -192 46 -328 46c-44 0 -95.5 -3.16699 -154.5 -9.5s-125.167 -16.166 -198.5 -29.499l-2 -432c128.667 34 225.334 51 290.001 51c102.667 0 209 -6 319 -18c62.667 -6.66699 94 -40.667 94 -102
c0 -30 -9.66699 -54.833 -29 -74.5s-43.333 -29.5 -72 -29.5c-34.667 0 -86.667 3 -156 9s-121.333 9 -156 9c-45.333 0 -143.333 -19.333 -294 -58l-9 -688c0 -28.667 -9.33301 -52.834 -28 -72.501s-42.334 -29.5 -71.001 -29.5s-52.5 9.83301 -71.5 29.5
s-28.5 43.834 -28.5 72.501c0 131.333 2.5 328.5 7.5 591.5s7.5 460.167 7.5 591.5c0 29.333 -0.5 73.5 -1.5 132.5s-1.5 103.167 -1.5 132.5s9.16699 54 27.5 74s42.166 30 71.499 30c22 0 41.667 -6 59 -18c82.667 14.667 157 25.5 223 32.5s124 10.5 174 10.5
c76.667 0 164.334 -11 263.001 -33c134 -30.667 201 -70.667 201 -120c0 -26.667 -8.66699 -50.334 -26 -71.001c-19.333 -23.333 -43.333 -35 -72 -35z" />
    <glyph glyph-name="G" unicode="G" horiz-adv-x="1392" 
d="M1300 605c-41.333 -204.667 -128.168 -368.169 -260.501 -490.502s-288.5 -183.5 -468.5 -183.5c-164 0 -287 45.833 -369 137.5s-123 229.167 -123 412.5c0 172.667 40.833 350.5 122.5 533.5s186.5 330.833 314.5 443.5c85.333 75.333 175.666 113 270.999 113
c60.667 0 140.667 -20 240 -60c121.333 -48 182 -101 182 -159c0 -27.333 -10 -51.666 -30 -72.999s-44 -32 -72 -32c-14.667 0 -35.334 8.33301 -62.001 25c-102 62 -188 93 -258 93c-50 0 -102.333 -26 -157 -78c-27.333 -26 -66.666 -73.333 -117.999 -142
c-154 -204 -231 -425.333 -231 -664c0 -125.333 19.333 -213 58 -263c42 -54.667 119.333 -82 232 -82c119.333 0 223 37.667 311 113c92.667 80 157.334 194.333 194.001 343c-184.667 -9.33301 -343 -45 -475 -107c-15.333 -7.33301 -30.333 -11 -45 -11
c-29.333 0 -53.666 11.333 -72.999 34c-18 20.667 -27 44.667 -27 72c0 36.667 17.667 66 53 88c144 88 392.333 132 745 132c28.667 0 52.667 -9.66699 72 -29s29 -43.666 29 -72.999c0 -43.333 -18.333 -74.333 -55 -93z" />
    <glyph glyph-name="H" unicode="H" horiz-adv-x="1573" 
d="M1456 1409c-10 -28 -14.999 -69.0039 -14.999 -123.004c0 -20 0.666992 -49.667 2 -89s2 -69 2 -89c0 -66.667 -5.83301 -166 -17.5 -298s-17.5 -231.333 -17.5 -298c0 -50.667 3.66699 -126.667 11 -228s11 -177.666 11 -228.999c0 -27.333 -9.16699 -50.333 -27.5 -69
s-41.166 -28 -68.499 -28c-26.667 0 -49.334 9.33301 -68.001 28s-28 41.667 -28 69c0 51.333 -3.66699 127.666 -11 228.999s-11 177.333 -11 228c0 48.667 1.66699 98 5 148c-114 -2 -255 -19 -423 -51l-420 -82c0 -60 -6 -145.167 -18 -255.5s-18 -195.833 -18 -256.5
c0 -27.333 -9.16699 -50.5 -27.5 -69.5s-41.166 -28.5 -68.499 -28.5s-50.166 9.5 -68.499 28.5s-27.5 42.167 -27.5 69.5c0 70.667 5.83301 176.167 17.5 316.5s17.5 245.833 17.5 316.5c0 36.667 -1.33301 92 -4 166s-4 129.667 -4 167
c0 52.667 3.33301 131.834 10 237.501s10 184.834 10 237.501c0 28 9.16699 51.333 27.5 70s41.166 28 68.499 28s50.166 -9.33301 68.499 -28s27.5 -42 27.5 -70c0 -53.333 -3.5 -133.166 -10.5 -239.499s-10.5 -186.166 -10.5 -239.499l6 -253l429 81
c171.333 32 315.666 48.667 432.999 50c7.33301 95.333 11 239 11 431c0 50.667 8.33301 102 25 154c22 71.333 53 107 93 107c25.333 0 48 -9.16699 68 -27.5s30 -41.5 30 -69.5c0 -10 -3 -23.667 -9 -41z" />
    <glyph glyph-name="I" unicode="I" horiz-adv-x="1119" 
d="M957 1246c-42.667 0 -96.332 4.33691 -160.999 13.0039l-161 21c-15.333 -194 -23 -379.333 -23 -556c0 -46.667 1.33301 -104.334 4 -173.001s4 -126.334 4 -173.001c0 -62.667 -2.33301 -119.667 -7 -171l315 4c28 0 51.5 -9.83301 70.5 -29.5
s28.5 -43.834 28.5 -72.501c0 -29.333 -9.5 -53.833 -28.5 -73.5s-42.5 -29.5 -70.5 -29.5c-37.333 0 -93.333 -0.833008 -168 -2.5s-130.667 -2.5 -168 -2.5c-44 0 -109.833 -6.16699 -197.5 -18.5s-153.834 -18.5 -198.501 -18.5c-28 0 -51.5 9.83301 -70.5 29.5
s-28.5 43.834 -28.5 72.501s9.5 53 28.5 73s42.5 30 70.5 30c43.333 0 115 7 215 21c6.66699 54 10 115.667 10 185c0 46 -2.16699 102.167 -6.5 168.5s-6.5 122.166 -6.5 167.499c0 154 9.33301 346.333 28 577l-130 -4l-130 -3c-28.667 0 -52.667 9.66699 -72 29
s-29 44 -29 74c0 62 31.333 96 94 102c54 5.33301 155 8 303 8c132.667 0 299 -14.333 499 -43c59.333 -8.66699 89 -44.334 89 -107.001c0 -31.333 -11.333 -56.333 -34 -75c-20 -15.333 -43 -23 -69 -23z" />
    <glyph glyph-name="J" unicode="J" horiz-adv-x="1362" 
d="M1197 1294c-12 0 -32.5 2.50098 -61.5 7.50098s-51.5 7.5 -67.5 7.5c-32.667 0 -71 -1 -115 -3l5 -119c0 -496 -33 -857 -99 -1083c-44 -149.333 -121 -224 -231 -224c-116 0 -231 42 -345 126c-126 93.333 -189 200.333 -189 321c0 82 33.667 123 101 123
s101 -40.333 101 -121c0 -55.333 39.333 -110.333 118 -165c75.333 -52 146.666 -78 213.999 -78c54.667 0 92.667 167.667 114 503c10 158.667 15 358 15 598c0 18.667 -1.66699 54.667 -5 108l-61 -1c-26 0 -65.167 0.833008 -117.5 2.5s-91.833 2.5 -118.5 2.5
c-29.333 0 -54 9.33301 -74 28s-30 44 -30 76c0 68.667 46.333 103 139 103c22.667 0 56.334 -1 101.001 -3s78 -3 100 -3c42 0 104.833 2.5 188.5 7.5s146.5 7.5 188.5 7.5c152 0 228 -38.667 228 -116c0 -26.667 -9 -50.334 -27 -71.001
c-19.333 -22.667 -43.333 -34 -72 -34z" />
    <glyph glyph-name="K" unicode="K" horiz-adv-x="1251" 
d="M1153 -41c-101.333 0 -245.667 89.002 -433 267.002l-299 301v-14l-1 -524c0 -66 -29 -99 -87 -99c-38 0 -68.333 16.667 -91 50c-18.667 27.333 -28 57 -28 89c0 156 4.66699 389.333 14 700s14 543.667 14 699c0 28.667 9.5 53 28.5 73s42.5 30 70.5 30
c28.667 0 52.5 -10 71.5 -30s28.5 -44.333 28.5 -73c0 -64.667 -4 -165.334 -12 -302.001c-8 -132 -11.667 -233 -11 -303c89.333 84.667 190.333 191 303 319l287 333c22.667 26 48 39 76 39c26.667 0 50.334 -10 71.001 -30s31 -44.333 31 -73
c0 -44 -86 -161.333 -258 -352c-118.667 -130 -241.334 -257.333 -368.001 -382c80 -84 205.333 -204.667 376 -362l105 -88c38 -29.333 79 -51.333 123 -66c52.667 -17.333 79 -50.333 79 -99c0 -22.667 -7 -44.334 -21 -65.001c-17.333 -25.333 -40.333 -38 -69 -38z" />
    <glyph glyph-name="L" unicode="L" horiz-adv-x="1128" 
d="M1025 41c-75.333 -35.333 -193.668 -66.998 -355.001 -94.998c-148.667 -26 -270 -39 -364 -39c-67.333 0 -115.666 10.333 -144.999 31c-40 28 -60 79.333 -60 154l20 331c17.333 305.333 26 644 26 1016c0 28.667 9.5 53 28.5 73s42.5 30 70.5 30
c28.667 0 52.5 -10 71.5 -30s28.5 -44.333 28.5 -73c0 -376.667 -9 -719.334 -27 -1028l-13 -152c-5.33301 -55.333 -7.33301 -104.333 -6 -147c174 -2 394 39 660 123c11.333 3.33301 22 5 32 5c28.667 0 52.667 -11.333 72 -34c16.667 -20.667 25 -44.334 25 -71.001
c0 -42.667 -21.333 -74 -64 -94z" />
    <glyph glyph-name="M" unicode="M" horiz-adv-x="1808" 
d="M1625 -83c-36 0 -65.668 18.666 -89.001 55.999c-20 32 -38 85.333 -54 160l-36 172c-27.333 106.667 -70.666 342 -129.999 706l-200 -603l-59 -190c-24 -75.333 -49 -137 -75 -185c-28 -50.667 -65.667 -76 -113 -76c-39.333 0 -70.333 21.333 -93 64
c-14.667 28 -28 63.667 -40 107l-29 111c-67.333 235.333 -126.666 487.333 -177.999 756l-36 -179l-129 -528c-5.33301 -62 -22 -153.667 -50 -275c-20 -52 -53 -78 -99 -78c-32.667 0 -58.667 11.667 -78 35c-16.667 20 -25 44.667 -25 74c0 111.333 23 248 69 410
l110 403l58 315c29.333 147.333 60.333 243.666 93 288.999c26.667 38.667 59.667 58 99 58c43.333 0 75.666 -24.667 96.999 -74c26 -59.333 54 -180.333 84 -363c35.333 -219.333 90.333 -456.666 165 -711.999c98.667 256.667 184 524 256 802l30 146
c12 58.667 27.667 106 47 142c26 49.333 61.667 74 107 74c57.333 0 101 -55.333 131 -166c10.667 -38 23.667 -116.667 39 -236c39.333 -301.333 88.333 -558.666 147 -771.999l49 -172c25.333 -92 38 -148.667 38 -170c0 -28.667 -10.833 -52.667 -32.5 -72
s-46.167 -29 -73.5 -29z" />
    <glyph glyph-name="N" unicode="N" horiz-adv-x="1632" 
d="M1541 222c0 -32 -5.33105 -85.3301 -15.998 -159.997c-10.667 -67.333 -46.334 -101 -107.001 -101c-36.667 0 -80.334 24 -131.001 72c-271.333 256.667 -582.666 627 -933.999 1111l-5 -227l-3 -228c0 -55.333 1.16699 -138.333 3.5 -249s3.5 -194 3.5 -250
c0 -179.333 -34.667 -269 -104 -269c-36.667 0 -65.667 11.667 -87 35c-19.333 20.667 -29 45.334 -29 74.001c0 28 2.16699 70.333 6.5 127s6.5 99 6.5 127c0 41.333 1.33301 103.166 4 185.499s4 144.166 4 185.499c0 44 -1 110.5 -3 199.5s-3 155.5 -3 199.5
c0 42 -4 104.5 -12 187.5s-12 145.5 -12 187.5c0 30.667 13.167 58.667 39.5 84s56.166 38 89.499 38c35.333 0 79 -38.667 131 -116c166 -248.667 315.333 -455.334 448 -620.001c158 -195.333 331.333 -382 520 -560c2 28.667 2 71 0 127l-3 126
c0 292.667 -11.333 525.667 -34 699c-2.66699 17.333 -11.667 52.333 -27 105c-13.333 45.333 -20 80.666 -20 105.999c0 77.333 35.333 116 106 116c116 0 174 -216.333 174 -649c0 -74 -1 -184.5 -3 -331.5s-3 -257.5 -3 -331.5z" />
    <glyph glyph-name="O" unicode="O" horiz-adv-x="1635" 
d="M802 -61c-188 0 -347.333 56.332 -478 168.999c-138.667 120 -208 274.667 -208 464c0 230.667 68.333 440.334 205 629.001c152.667 209.333 343 314 571 314c219.333 0 382.333 -49.333 489 -148c111.333 -102.667 167 -264.667 167 -486
c0 -230.667 -62.667 -438.667 -188 -624c-144 -212 -330 -318 -558 -318zM892 1310c-163.333 0 -301.667 -81.332 -415 -243.999c-104.667 -149.333 -157 -314 -157 -494c0 -128.667 47.667 -233.334 143 -314.001c91.333 -76 204.333 -114 339 -114
c162 0 295.667 81.667 401 245c94 146 141 310 141 492c0 159.333 -35.667 271.333 -107 336c-68 62 -183 93 -345 93z" />
    <glyph glyph-name="P" unicode="P" horiz-adv-x="1066" 
d="M413 587c-18.667 0 -59.3301 4.33301 -121.997 13c-5.33301 -100.667 -8 -277 -8 -529c0 -26.667 -8.66699 -49.167 -26 -67.5s-39 -27.5 -65 -27.5c-26.667 0 -48.667 9.16699 -66 27.5s-26 40.833 -26 67.5v294c0 98 6 236 18 414
c13.333 192.667 20.666 330.667 21.999 414v138c0 66 4 114 12 144c15.333 58.667 48 84 98 76c21.333 6.66699 51.666 11.667 90.999 15s87.666 5 144.999 5c122 0 236.333 -41.667 343 -125c117.333 -92 176 -202.667 176 -332c0 -165.333 -62.667 -297 -188 -395
c-112 -88 -246.667 -132 -404 -132zM463.004 1381c-29.333 0 -55.5 -0.666992 -78.5 -2s-42.5 -3.33301 -58.5 -6l-2 -184l-21 -398l110 -13c112 0 206.333 28.333 283 85c84 62 126 145.667 126 251c0 74.667 -40 139 -120 193c-74 49.333 -153.667 74 -239 74z" />
    <glyph glyph-name="Q" unicode="Q" horiz-adv-x="1795" 
d="M1646 -438c-29.333 0 -108.332 57.001 -236.999 171.001l-239 219c-112.667 -45.333 -224.334 -68 -335.001 -68c-200.667 0 -377.167 80 -529.5 240s-228.5 341 -228.5 543c0 238 88.667 440 266 606c173.333 161.333 378.333 242 615 242
c249.333 0 438.333 -93.333 567 -280c109.333 -160 164 -367 164 -621c0 -220.667 -108 -406.334 -324 -557.001l218 -201l129 -110c25.333 -24 38 -50 38 -78c0 -27.333 -10.167 -51.833 -30.5 -73.5s-44.833 -32.5 -73.5 -32.5zM958.001 1308
c-182.667 0 -340.001 -60.999 -472.001 -182.999c-136 -125.333 -204 -278 -204 -458c0 -146 56.333 -278 169 -396c113.333 -120 241.333 -180 384 -180c46 0 93.333 5.66699 142 17c-128.667 112 -193 200.333 -193 265c0 29.333 10.833 53.666 32.5 72.999
s45.834 29 72.501 29c32 0 60.333 -16 85 -48c66 -86 140.667 -163 224 -231c190 110.667 285 250 285 418c0 198 -40.333 358.667 -121 482c-92 141.333 -226.667 212 -404 212z" />
    <glyph glyph-name="R" unicode="R" horiz-adv-x="1287" 
d="M1126 -11c-25.333 0 -49.001 10.667 -71.001 32c-220.667 218 -466 364.667 -736 440l8 -196l5 -197c0 -29.333 -9.5 -53.833 -28.5 -73.5s-42.833 -29.5 -71.5 -29.5s-52.5 9.83301 -71.5 29.5s-28.5 44.167 -28.5 73.5c0 52.667 -2.5 131.167 -7.5 235.5
s-7.5 182.833 -7.5 235.5c0 61.333 6.66699 152.666 20 273.999s20 212.333 20 273c0 34 -3.16699 84.333 -9.5 151s-9.5 117 -9.5 151c0 38 10.667 71.333 32 100c25.333 35.333 60.333 51.333 105 48l241 -19c91.333 -11.333 168.333 -33.666 231 -66.999
c270 -143.333 405 -318.333 405 -525c0 -101.333 -46 -191 -138 -269c-74 -62.667 -166.333 -110.334 -277 -143.001c207.333 -111.333 362.333 -228.666 465 -351.999c17.333 -21.333 26 -44 26 -68c0 -28 -10.167 -52.333 -30.5 -73s-44.166 -31 -71.499 -31z
M488.999 1311l-148 11.999l10 -121c4.66699 -49.333 7 -89.666 7 -120.999c0 -53.333 -4.33301 -119.666 -13 -198.999l-21 -199c9.33301 0 23.833 -0.333008 43.5 -1s34.5 -1 44.5 -1c170 0 297.333 22.667 382 68c37.333 20.667 72 47.667 104 81
c35.333 37.333 53 69 53 95c0 92.667 -52.667 179 -158 259c-96.667 73.333 -198 115.666 -304 126.999z" />
    <glyph glyph-name="S" unicode="S" horiz-adv-x="1420" 
d="M134 249c-0.666992 28 8.83398 50.834 28.501 68.501s43.834 26.5 72.501 26.5c32.667 0 61.334 -18.667 86.001 -56c34 -50.667 64.333 -85 91 -103c56.667 -37.333 139 -56 247 -56c103.333 0 199.333 22.333 288 67c113.333 57.333 170 137 170 239
c0 84 -47.667 150.333 -143 199c-80.667 42 -180.334 64.667 -299.001 68c-105.333 4 -195 27 -269 69c-94.667 54 -142 131.333 -142 232c0 118.667 67.333 227 202 325c128.667 92.667 261.667 139 399 139c64.667 0 137.667 -11 219 -33
c108 -28.667 162 -65.334 162 -110.001c0 -58.667 -30 -88 -90 -88c-26.667 0 -73.334 7.16699 -140.001 21.5s-118.334 21.166 -155.001 20.499c-104 -1.33301 -192.333 -27 -265 -77c-74.667 -51.333 -112 -113.666 -112 -186.999c0 -55.333 49.333 -94.333 148 -117
c36.667 -8.66699 107.667 -16.667 213 -24c152.667 -11.333 272 -59.333 358 -144c78.667 -77.333 118 -171.666 118 -282.999c0 -158.667 -73.333 -285.334 -220 -380.001c-127.333 -82 -275 -123 -443 -123c-122 0 -233.667 23.333 -335 70c-124 57.333 -187 136 -189 236
z" />
    <glyph glyph-name="T" unicode="T" horiz-adv-x="1392" 
d="M1362 1263c-49.333 0 -125.332 4.00293 -227.999 12.0029c-100 7.33301 -176 10.666 -228 9.99902h-71c2 -92 11 -241.333 27 -448c14.667 -192.667 22 -342.334 22 -449.001c0 -23.333 2.33301 -58.666 7 -105.999s7 -83 7 -107c0 -45.333 -7.33301 -84.333 -22 -117
c-18.667 -44 -47.667 -66 -87 -66c-26.667 0 -50.667 9.33301 -72 28s-32 42.667 -32 72c0 10 1.66699 25 5 45s5 35 5 45c0 32.667 -2.16699 81.667 -6.5 147s-6.5 114.666 -6.5 147.999c0 95.333 -7.66699 229.333 -23 402c-16 186.667 -25 320.667 -27 402l-91 -1
c-146 0 -260.667 10.667 -344 32c-54 14 -81 47 -81 99c0 27.333 8.66699 51.333 26 72c20 23.333 45.667 34 77 32c23.333 -1.33301 76.666 -7.33301 159.999 -18c66.667 -8 120.667 -12 162 -12c40 0 100.667 0.833008 182 2.5s142 2.5 182 2.5
c51.333 0 127.5 -3.66699 228.5 -11s177.167 -11 228.5 -11c28.667 0 52.667 -9.83301 72 -29.5s29 -44.167 29 -73.5c0 -28.667 -9.66699 -52.834 -29 -72.501s-43.333 -29.5 -72 -29.5z" />
    <glyph glyph-name="U" unicode="U" horiz-adv-x="1509" 
d="M790 -40c-207.333 0 -362.001 59.668 -464.001 179.001c-82.667 96 -134.667 238 -156 426c-10 84.667 -15 253.667 -15 507c0 93.333 2 168.666 6 225.999c4 60.667 10 103 18 127c16.667 48.667 46.667 73 90 73c61.333 0 92 -56.333 92 -169v-587
c0 -404 141.333 -606 424 -606c266 0 399 340 399 1020v98c-0.666992 40 -1 66.667 -1 80c0 41.333 7.33301 77.666 22 108.999c18.667 40 46.334 60 83.001 60c66.667 0 100 -45.667 100 -137c0 -27.333 0.333008 -68.666 1 -123.999v-124
c0 -772 -199.667 -1158 -599 -1158z" />
    <glyph glyph-name="V" unicode="V" horiz-adv-x="1331" 
d="M1306 1371c-41.333 -62 -74.999 -127.004 -100.999 -195.004l-76 -219l-269 -727c-31.333 -85.333 -68 -168.666 -110 -249.999c-21.333 -40 -51.333 -60 -90 -60c-51.333 0 -87.333 26 -108 78c-80.667 202.667 -170.334 494.334 -269.001 875.001l-79 275
c-39.333 138.667 -59 229.334 -59 272.001c0 30 10.667 54.667 32 74c19.333 18 42.666 27 69.999 27c50.667 0 83.334 -27.333 98.001 -82l37 -174l96 -340c64 -248 126.333 -461.667 187 -641l6 16l268 726l85 245c38 98.667 78.333 173.334 121 224.001
c22 26.667 48 40 78 40c26.667 0 50.5 -10.167 71.5 -30.5s31.5 -44.833 31.5 -73.5c0 -20 -6.66699 -40 -20 -60z" />
    <glyph glyph-name="W" unicode="W" horiz-adv-x="2129" 
d="M1423 -96c-30.667 0 -57.665 8.66309 -80.998 25.9961c-26.667 20 -40 44.667 -40 74c-30.667 80.667 -50 146.334 -58 197.001s-34.333 194.334 -79 431.001c-34 179.333 -56.667 323.333 -68 432c-59.333 -220 -123 -406.333 -191 -559
c-78.667 -176.667 -129.667 -315 -153 -415c8 -15.333 12 -30.333 12 -45c0 -30 -13.333 -54.667 -40 -74c-24 -18 -51.333 -27 -82 -27c-90 0 -135 40.333 -135 121l-31 127l-109 490c-43.333 165.333 -117.333 402.333 -222 711c-4.66699 14.667 -7 28 -7 40
c0 62 35 93 105 93c43.333 0 76.666 -23.667 99.999 -71c12 -24 36.333 -93 73 -207c39.333 -120.667 78.666 -266 117.999 -436l97 -442c71.333 165.333 142.333 366.666 213 603.999c43.333 144.667 76.333 245 99 301c60 147.333 118.333 221 175 221
c46.667 0 79.667 -23.667 99 -71c24 -57.333 48.333 -194 73 -410c13.333 -109.333 36 -240.666 68 -393.999l86 -393c89.333 214.667 201 505 335 871c7.33301 20 24 83 50 189c19.333 78 43 138.667 71 182c24 36.667 55.333 55 94 55c67.333 0 101 -33.333 101 -100
c0 -11.333 -10.667 -44.666 -32 -99.999l-40 -108l-55 -178l-297 -722c-27.333 -79.333 -74.333 -194.666 -141 -345.999c-24 -44.667 -60 -67 -108 -67z" />
    <glyph glyph-name="X" unicode="X" horiz-adv-x="1482" 
d="M1379 1349c-89.333 -108 -158 -196.999 -206 -266.999l-125 -184c-48.667 -69.333 -94.334 -127.666 -137.001 -174.999l220 -322c87.333 -127.333 165 -231.333 233 -312c18 -22 27 -45 27 -69c0 -28 -10.167 -52.333 -30.5 -73s-44.5 -31 -72.5 -31
c-25.333 0 -49 10.333 -71 31c-49.333 46.667 -100.666 110 -153.999 190l-134 206l-157 225l-344 -398l-184 -206c-22 -22 -46.333 -33 -73 -33c-27.333 0 -51.333 10.333 -72 31s-31 45 -31 73c0 24 8.66699 46.667 26 68l180 201l375 435
c-73.333 98 -151.333 196.333 -234 295l-116 157c-46.667 62.667 -90 110.667 -130 144c-28 23.333 -42 50.333 -42 81c0 27.333 9.66699 51.666 29 72.999s43.333 32 72 32c56.667 0 129 -60.333 217 -181c27.333 -40.667 69 -98.334 125 -173.001
c76 -90.667 148.333 -181.667 217 -273l228 318c148 206 244 309 288 309c27.333 0 51.333 -10.333 72 -31s31 -45 31 -73c0 -23.333 -9 -46 -27 -68z" />
    <glyph glyph-name="Y" unicode="Y" horiz-adv-x="1301" 
d="M1172 1279c-16 -25.333 -37.334 -64.334 -64.001 -117.001l-172 -425c-66.667 -159.333 -129.334 -298.666 -188.001 -417.999l-125 -223l-53 -108c-22 -38.667 -51.667 -58 -89 -58c-26 0 -49.667 9.66699 -71 29s-32 43.333 -32 72c0 22.667 31.333 93.667 94 213
l123 225c-119.333 154 -196.666 275.333 -231.999 364c-30 75.333 -80 165.666 -150 270.999c-96 144 -152.333 231 -169 261c-10 18 -15 36 -15 54c0 28.667 10.5 52.834 31.5 72.501s44.833 29.5 71.5 29.5c32.667 0 60 -15.667 82 -47l80 -124
c70.667 -104.667 117.334 -176 140.001 -214c50 -82 89 -158 117 -228c22 -55.333 69 -131 141 -227l229 558c26 46 62 117 108 213c18.667 45.333 49.667 68 93 68c26.667 0 50.5 -9.33301 71.5 -28s31.5 -42.667 31.5 -72c0 -30.667 -17.667 -77.667 -53 -141z" />
    <glyph glyph-name="Z" unicode="Z" horiz-adv-x="1420" 
d="M1266 1251l-135 -92.002c-121.333 -94 -258.666 -244.333 -411.999 -451l-351 -511c-16.667 -25.333 -33 -48.666 -49 -69.999l389 15c170 8 300 12 390 12c88 0 153 -4 195 -12c54 -10.667 82 -38 84 -82c1.33301 -32.667 -9.33398 -58.667 -32.001 -78
c-20 -16.667 -45 -25 -75 -25c-19.333 0 -48.333 1.16699 -87 3.5s-67.667 3.5 -87 3.5c-101.333 0 -253.5 -2.5 -456.5 -7.5s-355.167 -7.5 -456.5 -7.5c-76.667 0 -115 33.667 -115 101c0 44 20.667 99.333 62 166l107 149l361 502
c148.667 196.667 287 349.334 415 458.001l-350 -20h-404c-7.33301 0 -18.166 -0.5 -32.499 -1.5s-24.833 -1.5 -31.5 -1.5c-70.667 0 -106 34.333 -106 103c0 45.333 18 75.333 54 90c22 9.33301 58.333 14 109 14c46 0 114.5 -4.83301 205.5 -14.5
s159.5 -14.5 205.5 -14.5c51.333 0 128.166 3.33301 230.499 10s179.5 10 231.5 10c171.333 0 257 -32.333 257 -97c0 -44 -38.667 -94.667 -116 -152z" />
    <glyph glyph-name="bracketleft" unicode="[" horiz-adv-x="771" 
d="M440 -412c-14.667 0 -37 -0.833008 -67 -2.5s-52.667 -2.5 -68 -2.5c-86 0 -129 39 -129 117c0 122 4.83301 356.5 14.5 703.5s14.5 581.5 14.5 703.5l-16 303l-1 14c-1.33301 25.333 6.5 47.666 23.5 66.999s38.833 29 65.5 29c20 0 50.167 -0.833008 90.5 -2.5
s70.5 -2.5 90.5 -2.5c12.667 0 31.5 0.833008 56.5 2.5s43.833 2.5 56.5 2.5c61.333 0 92 -32.333 92 -97c0 -59.333 -28 -91.666 -84 -96.999s-123.667 -6.33301 -203 -3c4 -60 6 -127.667 6 -203l-13 -671l-16 -670l87 3c19.333 0 48.5 -0.833008 87.5 -2.5
s68.167 -2.5 87.5 -2.5c26.667 0 47.834 -9.5 63.501 -28.5s23.5 -41.833 23.5 -68.5s-7.83301 -49.5 -23.5 -68.5s-36.834 -28.5 -63.501 -28.5c-19.333 0 -48.5 0.833008 -87.5 2.5s-68.167 2.5 -87.5 2.5z" />
    <glyph glyph-name="backslash" unicode="\" horiz-adv-x="1126" 
d="M920 -141c-33.333 0 -59.999 17.001 -79.999 51.001c-25.333 42 -64.333 125.333 -117 250l-291 745c-42.667 100.667 -122.334 257 -239.001 469c-10.667 19.333 -16 37 -16 53c0 26 9.83301 48.667 29.5 68s42.167 29 67.5 29c30 0 55.333 -15.333 76 -46
c76 -114 158.333 -276.667 247 -488l205 -515c71.333 -181.333 138.333 -339 201 -473c8 -16.667 12 -32.334 12 -47.001c0 -26 -9.5 -48.5 -28.5 -67.5s-41.167 -28.5 -66.5 -28.5z" />
    <glyph glyph-name="bracketright" unicode="]" horiz-adv-x="771" 
d="M438 -412c15.333 0 38 -0.833008 68 -2.5s52.333 -2.5 67 -2.5c86 0 129 39 129 117c0 122 -4.83301 356.5 -14.5 703.5s-14.5 581.5 -14.5 703.5l16 303l1 14c1.33301 25.333 -6.5 47.666 -23.5 66.999s-38.5 29 -64.5 29c-20.667 0 -51.167 -0.833008 -91.5 -2.5
s-70.5 -2.5 -90.5 -2.5c-12.667 0 -31.5 0.833008 -56.5 2.5s-43.833 2.5 -56.5 2.5c-61.333 0 -92 -32.333 -92 -97c0 -59.333 28 -91.666 84 -96.999s124 -6.33301 204 -3c-4.66699 -60 -7 -127.667 -7 -203l13 -671l16 -670l-87 3c-19.333 0 -48.5 -0.833008 -87.5 -2.5
s-68.167 -2.5 -87.5 -2.5c-26 0 -47 -9.5 -63 -28.5s-24 -41.833 -24 -68.5s8 -49.5 24 -68.5s37 -28.5 63 -28.5c19.333 0 48.5 0.833008 87.5 2.5s68.167 2.5 87.5 2.5z" />
    <glyph glyph-name="asciicircum" unicode="^" horiz-adv-x="1190" 
d="M594 1646c36.667 0 80.667 -22.666 132 -67.999c16 -14 52.667 -51 110 -111l158 -170c18 -20 27 -40.333 27 -61c0 -24.667 -9.33301 -46.167 -28 -64.5s-40 -27.5 -64 -27.5c-22 0 -43 9.66699 -63 29c-53.333 60 -137 146.667 -251 260
c-169.333 -207.333 -278 -311 -326 -311c-24 0 -45.167 9.33301 -63.5 28s-27.5 40 -27.5 64c0 23.333 10.333 44.666 31 63.999c36.667 36 138 148.333 304 337c18 20.667 38.333 31 61 31z" />
    <glyph glyph-name="underscore" unicode="_" horiz-adv-x="1284" 
d="M973 -345c-47.333 0 -118.332 1.66699 -212.999 5s-165.667 5 -213 5h-445c-15.333 0 -38.333 -1.66699 -69 -5s-53.334 -5 -68.001 -5v185c66.667 0 166.667 0.5 300 1.5s233.333 1.5 300 1.5c47.333 0 117.833 -1.83301 211.5 -5.5s164.167 -5.5 211.5 -5.5l335 8v-185
h-350z" />
    <glyph glyph-name="grave" unicode="`" horiz-adv-x="1139" 
d="M577 1267c0 -24 -9.5 -44.834 -28.5 -62.501s-40.5 -26.5 -64.5 -26.5c-28.667 0 -52.667 14 -72 42l-100 149c-35.333 48.667 -76.666 91.334 -123.999 128.001c-26 20 -39 43.667 -39 71c0 24 8.83301 45.5 26.5 64.5s38.5 28.5 62.5 28.5
c41.333 0 108.666 -55.333 201.999 -166c91.333 -109.333 137 -185.333 137 -228z" />
    <glyph glyph-name="a" unicode="a" horiz-adv-x="1048" 
d="M920 -66c-12.667 0 -35.6641 14.668 -68.9971 44.001c-30 27.333 -52.333 51.666 -67 72.999c-64 -34.667 -120.333 -60.834 -169 -78.501s-89.334 -26.5 -122.001 -26.5c-156 0 -269.667 44 -341 132c-67.333 82.667 -101 209.334 -101 380.001
c0 161.333 55.5 299.333 166.5 414s243.5 172 397.5 172c58 0 123 -15 195 -45c90.667 -37.333 136 -82.333 136 -135c0 -18 -6.66699 -34 -20 -48c-6.66699 -25.333 -11.834 -67 -15.501 -125s-5.83398 -132.333 -6.50098 -223c-0.666992 -82.667 5 -148 17 -196
c6.66699 -29.333 27.667 -88 63 -176c4.66699 -12 12.334 -29.667 23.001 -53l6 -17c0 -26.667 -9.33301 -48.667 -28 -66s-40.334 -26 -65.001 -26zM712.003 629.001c0 28.667 1.83496 59.833 5.50195 93.5s9.16699 69.5 16.5 107.5c-24.667 12.667 -45.834 22 -63.501 28
s-31.834 9 -42.501 9c-103.333 0 -192.5 -42.167 -267.5 -126.5s-112.5 -181.5 -112.5 -291.5c0 -109.333 19.333 -191.333 58 -246s96.667 -82 174 -82c64 0 118.333 11.667 163 35c24 12.667 57.667 38 101 76c-21.333 176.667 -32 309 -32 397z" />
    <glyph glyph-name="b" unicode="b" horiz-adv-x="1215" 
d="M606 -42c-102 0 -194.666 19.998 -277.999 59.998c-21.333 -32 -47.333 -48 -78 -48c-25.333 0 -46.833 8.83301 -64.5 26.5s-26.5 39.834 -26.5 66.501c0 17.333 0.833008 43 2.5 77s2.5 59.667 2.5 77c0 70.667 -1.83301 176.5 -5.5 317.5s-5.5 246.833 -5.5 317.5
c0 48.667 0.333008 140.834 1 276.501s1 228.167 1 277.5c0 40 8.33301 76 25 108c22 40.667 52.333 61 91 61c50 0 75 -29 75 -87c0 -9.33301 -1.66699 -23 -5 -41s-5 -31.667 -5 -41l-3 -219l-2 -255c58 39.333 113.167 68.833 165.5 88.5s101.5 29.5 147.5 29.5
c143.333 0 259.666 -55 348.999 -165c84 -103.333 126 -230.333 126 -381c0 -152 -49 -281 -147 -387s-220 -159 -366 -159zM644.001 860.998c-54.667 0 -110.666 -15.332 -167.999 -45.999c-28 -15.333 -76 -48.333 -144 -99l-2 -173l1 -156l1 -164
c32 -14.667 77 -33.334 135 -56.001c41.333 -12.667 87.666 -19 138.999 -19c96.667 0 176 34 238 102s93 152.667 93 254c0 99.333 -25 182.333 -75 249c-54 72 -126.667 108 -218 108z" />
    <glyph glyph-name="c" unicode="c" horiz-adv-x="1052" 
d="M591 -63c-136.667 0 -250.668 41.332 -342.001 123.999c-96 86.667 -144 201 -144 343c0 135.333 45 275 135 419c100 160 212.667 240 338 240c65.333 0 138.333 -15.333 219 -46c102 -39.333 153 -87.333 153 -144c0 -25.333 -8.33301 -47.833 -25 -67.5
s-37.334 -29.5 -62.001 -29.5c-19.333 0 -36.166 5.83301 -50.499 17.5l-41.5 34.5c-39.333 31.333 -103.666 47 -192.999 47c-68 0 -135.333 -60.667 -202 -182c-60.667 -111.333 -91 -207.666 -91 -288.999c0 -88 30 -157.333 90 -208c56 -47.333 128 -71 216 -71
c40 0 82.667 10.667 128 32l116 62c20 10.667 34.333 16 43 16c24.667 0 46 -9.83301 64 -29.5s27 -42.167 27 -67.5c0 -48.667 -51.333 -95.667 -154 -141c-90 -40 -164.667 -60 -224 -60z" />
    <glyph glyph-name="d" unicode="d" horiz-adv-x="1203" 
d="M1060 883c-8 -98 -12 -195.999 -12 -293.999c0 -222 10.333 -389.667 31 -503c1.33301 -9.33301 2 -17 2 -23c0 -26.667 -9.33301 -48.667 -28 -66s-40.334 -26 -65.001 -26c-41.333 0 -71.666 30 -90.999 90c-48 -35.333 -97.833 -62 -149.5 -80s-105.5 -27 -161.5 -27
c-138 0 -252.333 46 -343 138c-93.333 94 -140 214.667 -140 362c0 178 47.167 320.667 141.5 428s216.833 161 367.5 161c77.333 0 137 -12 179 -36l94 -69c9.33301 280.667 20.333 469.667 33 567c8.66699 59.333 39 89 91 89c60.667 0 91 -32.333 91 -97
c0 -92.667 -13.333 -297.334 -40 -614.001zM616 857.001c-112 0 -196 -33.168 -252 -99.501s-84 -166.166 -84 -299.499c0 -86 30.5 -160 91.5 -222s132.5 -93 214.5 -93c56 0 103.333 10.333 142 31c22.667 12 59.667 39.667 111 83c10 8.66699 19.667 19 29 31l-3 173
l1 116l2 118c-25.333 54 -59 94.5 -101 121.5s-92.333 40.5 -151 40.5z" />
    <glyph glyph-name="e" unicode="e" horiz-adv-x="1122" 
d="M606 -46c-150.667 0 -272.667 37.6689 -366 113.002c-102 83.333 -153 200 -153 350c0 173.333 42 318.666 126 435.999c91.333 128 213.333 192 366 192c110.667 0 201 -18.667 271 -56c86 -46 129 -116.667 129 -212c0 -66.667 -37.667 -127.334 -113 -182.001
c-33.333 -24 -104 -61.333 -212 -112l-382 -181c37.333 -55.333 83.833 -97 139.5 -125s120.5 -42 194.5 -42c46 0 100 8.66699 162 26c78.667 22 129.334 50.833 152.001 86.5s47 53.5 73 53.5c23.333 0 44.166 -8.83301 62.499 -26.5s27.5 -38.167 27.5 -61.5
c0 -74 -59.667 -137.667 -179 -191c-102 -45.333 -201.333 -68 -298 -68zM579 865.002c-81.333 0 -149.001 -31.5 -203.001 -94.5s-94.333 -157.833 -121 -284.5l307 146c120.667 58.667 206.667 109.667 258 153c-57.333 53.333 -137.666 80 -240.999 80z" />
    <glyph glyph-name="f" unicode="f" horiz-adv-x="1041" 
d="M811 1406c-161.333 0 -251.666 -111.999 -270.999 -335.999l-3 -62c113.333 8 186.666 12 219.999 12c106 0 159 -33.333 159 -100c0 -48.667 -26 -77.667 -78 -87c-22.667 -4 -49.167 -5.5 -79.5 -4.5s-107.166 -3.5 -230.499 -13.5l-8 -228
c0 -41.333 1.33301 -103.333 4 -186s4 -144.334 4 -185.001c0 -126.667 -7.33301 -225.334 -22 -296.001c-11.333 -53.333 -42.333 -80 -93 -80c-27.333 0 -50.666 8.83301 -69.999 26.5s-29 39.834 -29 66.501c0 5.33301 0.666992 12 2 20c14 86.667 21 181 21 283l-3 273
v290c-83.333 -6.66699 -136 -10 -158 -10c-67.333 0 -101 32.333 -101 97c0 66 58.333 100.667 175 104l96 3c2 37.333 7 88 15 152c17.333 148 54.666 257 111.999 327c69.333 84.667 177.666 127 324.999 127c95.333 0 143 -32.333 143 -97c0 -64 -43.333 -96 -130 -96z
" />
    <glyph glyph-name="g" unicode="g" horiz-adv-x="1087" 
d="M962 431l-22.999 -336c-4 -133.333 -17.667 -242.333 -41 -327c-30 -108 -78 -187.667 -144 -239c-80 -62 -195.667 -93 -347 -93c-88.667 0 -163 6 -223 18c-84 16.667 -126 51.334 -126 104.001c0 59.333 29 89 87 89c24 0 64 -5.83301 120 -17.5
s118 -16.834 186 -15.501c128 2 216.333 64 265 186c32 81.333 49 206.333 51 375c-36 -66.667 -78.833 -116.667 -128.5 -150s-106.5 -50 -170.5 -50c-120.667 0 -218.834 41.167 -294.501 123.5s-113.5 189.166 -113.5 320.499c0 180 51.667 325 155 435
c106.667 113.333 252 170 436 170c62 0 114 -8 156 -24s74 -40 96 -72c71.333 -2 107 -41.667 107 -119c0 -47.333 -7 -110.666 -21 -189.999c-15.333 -92 -24.333 -154.667 -27 -188zM641.001 864c-126.667 0 -224.664 -43.666 -293.997 -130.999
c-62 -78.667 -93 -178.667 -93 -300c0 -96.667 18.333 -169.334 55 -218.001s91.667 -73 165 -73c67.333 0 132.666 38 195.999 114c57.333 70 90 139.333 98 208c14 72 29 185 45 339c-26.667 20.667 -54.334 36 -83.001 46s-58.334 15 -89.001 15z" />
    <glyph glyph-name="h" unicode="h" horiz-adv-x="1183" 
d="M976 -62c-47.333 0 -78.3311 25.3311 -92.998 75.998c-15.333 54.667 -29.333 132.334 -42 233.001c-12 96.667 -18 176 -18 238c0 17.333 0.833008 43.666 2.5 78.999s2.5 61.666 2.5 78.999c0 125.333 -31.333 188 -94 188c-84.667 0 -160.334 -38.333 -227.001 -115
c-34 -39.333 -80.667 -114.333 -140 -225c0 -254 -10.667 -404.333 -32 -451c-18.667 -41.333 -47.667 -62 -87 -62c-27.333 0 -51.333 9.33301 -72 28s-31 41.334 -31 68.001c0 9.33301 3 24 9 44c5.33301 16.667 9 65.334 11 146.001l3 148l3 735
c4.66699 82.667 7 138.334 7 167.001c0 34 -3.16699 66.167 -9.5 96.5s-9.5 61.833 -9.5 94.5c0 28 9.66699 51.167 29 69.5s43 27.5 71 27.5c54.667 0 86.667 -29.333 96 -88c10.667 -64.667 16 -123 16 -175c0 -70 -2.33301 -143 -7 -219
c-4 -72.667 -5.66699 -145.667 -5 -219l1 -88c54.667 73.333 113.167 128.166 175.5 164.499s128.5 54.5 198.5 54.5c110.667 0 186.667 -36 228 -108c29.333 -50.667 46 -136 50 -256l8 -191l20 -208c9.33301 -78 20.666 -146.667 33.999 -206c2.66699 -11.333 4 -21 4 -29
c0 -27.333 -10 -50.166 -30 -68.499s-44 -27.5 -72 -27.5z" />
    <glyph glyph-name="i" unicode="i" horiz-adv-x="574" 
d="M330 1266c-32 0 -59.667 11.333 -83 34s-35 50 -35 82s11.667 59.333 35 82s51 34 83 34s59.5 -11.333 82.5 -34s34.5 -50 34.5 -82s-11.5 -59.333 -34.5 -82s-50.5 -34 -82.5 -34zM375 454c0 -40 1.16699 -99.833 3.5 -179.5s3.5 -139.5 3.5 -179.5
c0 -29.333 -9 -53.333 -27 -72s-41.667 -28 -71 -28c-28.667 0 -52.167 9.33301 -70.5 28s-27.5 42.667 -27.5 72c0 40 -1.16699 99.833 -3.5 179.5s-3.5 139.5 -3.5 179.5c0 62.667 3.33301 140.834 10 234.501s10 171.834 10 234.501c0 30 9.16699 54.333 27.5 73
s41.833 28 70.5 28s52.167 -9.33301 70.5 -28s27.5 -43 27.5 -73c0 -62.667 -3.33301 -140.834 -10 -234.501s-10 -171.834 -10 -234.501z" />
    <glyph glyph-name="j" unicode="j" horiz-adv-x="826" 
d="M467 1265c-32 0 -59.5 11.333 -82.5 34s-34.5 49.667 -34.5 81c0 32 11.5 59.333 34.5 82s50.5 34 82.5 34s59.667 -11.333 83 -34s35 -50 35 -82c0 -31.333 -11.667 -58.333 -35 -81s-51 -34 -83 -34zM459 -232c0.666992 78 -10.6689 277.669 -34.002 599.002l-34 551
c0 33.333 9.5 63 28.5 89s43.167 39 72.5 39c22.667 0 45.334 -8.33301 68.001 -25s34.667 -33.667 36 -51l33 -576l27 -616c0 -92.667 -27.667 -176.667 -83 -252c-60 -82 -133 -123 -219 -123c-143.333 0 -263.333 110.333 -360 331c-8 18 -12 34 -12 48
c0 26.667 10.5 49.667 31.5 69s44.833 29 71.5 29c39.333 0 80.333 -43.333 123 -130c10.667 -22.667 29.334 -55.334 56.001 -98.001c26 -33.333 56 -50 90 -50c29.333 0 54.333 22 75 66c16 33.333 26 66.666 30 99.999z" />
    <glyph glyph-name="k" unicode="k" horiz-adv-x="1106" 
d="M972 -41c-36.667 0 -65 19.3379 -85 58.0049c-34.667 67.333 -87 147 -157 239l-177 241c-38.667 -30.667 -98.667 -73.667 -180 -129c-7.33301 -103.333 -11 -204 -11 -302c0 -30 -9.16699 -54.333 -27.5 -73s-41.833 -28 -70.5 -28c-67.333 0 -101 45.333 -101 136
c0 55.333 3.83301 138.166 11.5 248.499s11.5 193.166 11.5 248.499c0 101.333 1.5 217.166 4.5 347.499s4.5 245.5 4.5 345.5c0 30 -1.5 65.333 -4.5 106s-4.5 76 -4.5 106s9.16699 54.333 27.5 73s41.833 28 70.5 28s52.167 -9.33301 70.5 -28s27.5 -43 27.5 -73
c0 -30.667 1.66699 -66.834 5 -108.501s5 -77.834 5 -108.501l-7 -322c-3.33301 -116 -4.33301 -232 -3 -348c90.667 69.333 178 145.333 262 228l220 227c22 22.667 45.667 34 71 34c26 0 49.5 -10.333 70.5 -31s31.5 -44.667 31.5 -72c0 -22.667 -9.66699 -45 -29 -67
c-82 -96 -183 -199 -303 -309l218 -297c102 -139.333 153 -230 153 -272c0 -26.667 -10.5 -49.667 -31.5 -69s-45.167 -29 -72.5 -29z" />
    <glyph glyph-name="l" unicode="l" horiz-adv-x="561" 
d="M393 786l-14.999 -497.002c0 -52.667 -2.66699 -130 -8 -232c-6.66699 -66.667 -39.334 -100 -98.001 -100c-65.333 0 -98 34 -98 102c0 80.667 3.66699 201.834 11 363.501s11 282.834 11 363.501c0 105.333 1.66699 225.833 5 361.5s5 256.167 5 361.5
c0 66.667 32.667 100 98 100c66 0 99 -33.333 99 -100c0 -105.333 -1.66699 -225.833 -5 -361.5s-5 -256.167 -5 -361.5z" />
    <glyph glyph-name="m" unicode="m" horiz-adv-x="1591" 
d="M1409 -83c-54.667 0 -86.667 29.0029 -96 87.0029c-12 73.333 -24 176.666 -36 309.999l-34 310c-6.66699 46 -18 91 -34 135c-22.667 60 -47.334 90 -74.001 90c-24.667 0 -70.667 -21 -138 -63c-64 -38.667 -106 -69.667 -126 -93
c-0.666992 -62.667 1 -125.334 5 -188.001l30 -267c12.667 -105.333 19 -192.333 19 -261c0 -29.333 -9.16699 -53.5 -27.5 -72.5s-41.833 -28.5 -70.5 -28.5s-52.167 9.5 -70.5 28.5s-27.5 43.167 -27.5 72.5c0 80.667 -8.16699 199.834 -24.5 357.501
s-24.5 276.834 -24.5 357.501c0 70.667 -10 125.667 -30 165c-46.667 -21.333 -94 -56 -142 -104l-118 -132c-10.667 -16 -27.667 -37 -51 -63c0 -40 -3.66699 -99 -11 -177s-11 -135.667 -11 -173c0 -20 3.16699 -48 9.5 -84s9.5 -62 9.5 -78
c0 -27.333 -10.167 -50.333 -30.5 -69s-44.166 -28 -71.499 -28c-75.333 0 -113 85.667 -113 257c0 40 3.66699 99.667 11 179s11 139 11 179c0 35.333 -3.16699 88.333 -9.5 159s-9.5 124 -9.5 160c0 151.333 34 227 102 227c26 0 49.833 -11.333 71.5 -34
s32.5 -47.334 32.5 -74.001c0 -12.667 -1.66699 -32.334 -5 -59.001s-5 -47 -5 -61l2 -105c34.667 71.333 85.667 135.833 153 193.5s124.666 86.5 171.999 86.5c104.667 0 176.667 -52 216 -156c36.667 48.667 80.334 85.167 131.001 109.5s108.667 36.5 174 36.5
c111.333 0 187.333 -60 228 -180c8 -24 21.667 -117.667 41 -281c18.667 -114.667 42.667 -305.667 72 -573c2 -26.667 -7 -49.334 -27 -68.001s-44.333 -28 -73 -28z" />
    <glyph glyph-name="n" unicode="n" horiz-adv-x="1072" 
d="M906 -71c-57.333 0 -89.668 31.3291 -97.001 93.9961l-28 219c-9.33301 78 -14 151 -14 219c0 18.667 1.16699 50.334 3.5 95.001s3.5 76.334 3.5 95.001c0 144 -26.667 216 -80 216c-74.667 0 -146 -44.333 -214 -133c-61.333 -80.667 -109.333 -182.667 -144 -306
c-1.33301 -26 -4.33301 -58.667 -9 -98c-4 -33.333 -6 -65.666 -6 -96.999c0 -20 2 -50 6 -90s6 -70 6 -90c0 -30 -9.16699 -54.333 -27.5 -73s-41.833 -28 -70.5 -28c-29.333 0 -53 9.33301 -71 28s-27 43 -27 73c0 20 -2.16699 50 -6.5 90s-6.5 70 -6.5 90
c0 68.667 4.83301 163.834 14.5 285.501s14.5 216.834 14.5 285.501c0 21.333 -1.16699 53 -3.5 95s-3.5 73.667 -3.5 95c0 28.667 9.5 52.167 28.5 70.5s42.5 27.5 70.5 27.5c61.333 0 95 -43.333 101 -130l3 -117c112 149.333 227 224 345 224c106.667 0 181 -47 223 -141
c28.667 -62.667 44.334 -155.334 47.001 -278.001v-101l-1 -93c0 -55.333 7.16699 -126.833 21.5 -214.5s21.5 -158.834 21.5 -213.501c0 -29.333 -9.5 -53.166 -28.5 -71.499s-42.833 -27.5 -71.5 -27.5z" />
    <glyph glyph-name="o" unicode="o" horiz-adv-x="1077" 
d="M514 -59c-112 0 -208.333 41.333 -289 124c-90 92 -137.333 215.667 -142 371c-4 150.667 34 283.334 114 398.001c93.333 135.333 223.333 203 390 203c133.333 0 234.333 -61 303 -183c54.667 -98.667 81 -217.334 79 -356.001c-2 -148 -40.667 -274.333 -116 -379
c-85.333 -118.667 -198.333 -178 -339 -178zM574 834c-98 0.666992 -174.332 -46 -228.999 -140c-43.333 -75.333 -65 -161.333 -65 -258s26.333 -172 79 -226c44 -44.667 95.667 -67 155 -67c69.333 0 129 25.333 179 76c56.667 56 86.667 131.667 90 227
c9.33301 258 -60.334 387.333 -209.001 388z" />
    <glyph glyph-name="p" unicode="p" horiz-adv-x="1095" 
d="M564 -35c-66.667 0 -140 10.667 -220 32l-2 -478c0 -29.333 -9.16699 -53.333 -27.5 -72s-41.833 -28 -70.5 -28s-52.167 9.33301 -70.5 28s-27.5 42.667 -27.5 72l3 400v399c-2 146 -7 279 -15 399l-15 203c0 47.333 8.66699 87.333 26 120c20 39.333 49 59 87 59
c26 0 47.833 -9.16699 65.5 -27.5s26.5 -40.833 26.5 -67.5c0 -6 -1 -17 -3 -33c-3.33301 -20.667 -5.66602 -39.667 -6.99902 -57c57.333 39.333 112.666 68.833 165.999 88.5s104.333 29.5 153 29.5c136.667 0 236.667 -60.667 300 -182c50 -96 75 -223 75 -381
c0 -144 -38.667 -262.667 -116 -356c-82 -98.667 -191.333 -148 -328 -148zM633 832c-61.333 0 -116.668 -13.667 -166.001 -41c-35.333 -19.333 -80 -54.666 -134 -105.999c8.66699 -151.333 13 -310.333 13 -477c72.667 -28 145.334 -42 218.001 -42
c83.333 0 147 31 191 93c38 54 57 124 57 210c0 121.333 -14.833 212.166 -44.5 272.499s-74.5 90.5 -134.5 90.5z" />
    <glyph glyph-name="q" unicode="q" 
d="M909 315l-46.0029 -384.001c-16.667 -142.667 -25 -271.667 -25 -387c0 -29.333 -9 -53.333 -27 -72s-41.667 -28 -71 -28c-61.333 0 -94 33.667 -98 101c-2 29.333 -0.333008 66.333 5 111l13 111l19 221c-57.333 -15.333 -97.666 -23 -120.999 -23
c-145.333 0 -263 37.667 -353 113c-96.667 80.667 -145 192.334 -145 335.001c0 195.333 55 352 165 470c112.667 121.333 266 181.333 460 180c36.667 0 64.334 -14.333 83.001 -43c28.667 25.333 54 38 76 38c26.667 0 49.834 -10.667 69.501 -32
s29.5 -45.666 29.5 -72.999c0 -196.667 -11.333 -409.334 -34 -638.001zM613.997 889.999c-122.667 -22 -215.332 -84.333 -277.999 -187c-50.667 -83.333 -76 -181.333 -76 -294c0 -78.667 24 -142.667 72 -192c52.667 -54.667 125.667 -80.667 219 -78
c63.333 2 109.666 36.333 138.999 103c32 74.667 49 201.667 51 381l14 267c-13.333 -4.66699 -36.666 -5.66699 -69.999 -3c-36.667 4 -60.334 5 -71.001 3z" />
    <glyph glyph-name="r" unicode="r" horiz-adv-x="984" 
d="M917 739c-4.66699 -83.333 -38.002 -125 -100.002 -125c-57.333 0 -86 33 -86 99c0 12.667 -1 36 -3 70l-3 84c-105.333 -12.667 -189.666 -42.334 -252.999 -89.001c-59.333 -43.333 -108.666 -108.666 -147.999 -195.999l2 -548c0 -67.333 -33 -101 -99 -101
c-58.667 0 -88 33.667 -88 101v702c0 22 0.833008 55 2.5 99s2.5 77 2.5 99c0 67.333 29.333 101 88 101c65.333 0 98.333 -55.333 99 -166c128 123.333 270 185 426 185c54 0 94.333 -20.333 121 -61s40 -102 40 -184c0 -34.667 -0.333008 -58 -1 -70z" />
    <glyph glyph-name="s" unicode="s" horiz-adv-x="997" 
d="M814 770c-36.667 0 -62.3359 12.333 -77.0029 37c-10 17.333 -18.667 53.333 -26 108c-50 -12.667 -127 -36 -231 -70c-107.333 -42.667 -161.333 -95.334 -162 -158.001c20 -7.33301 39.667 -12.666 59 -15.999c153.333 -27.333 267.333 -65 342 -113
c108.667 -70 163 -171.333 163 -304c0 -108.667 -47 -190.667 -141 -246c-78 -45.333 -176.667 -68 -296 -68c-87.333 0 -170.666 14.667 -249.999 44c-102.667 37.333 -154 89.333 -154 156c0 26.667 10.5 50 31.5 70s44.833 30 71.5 30c20.667 0 47.334 -16 80.001 -48
c16 -15.333 52 -28 108 -38c44.667 -8 82.334 -12 113.001 -12c56 0 105.333 6.66699 148 20c62 19.333 93 50 93 92c0 90.667 -63.333 152 -190 184l-104 23c-88.667 19.333 -151.667 42 -189 68c-54 37.333 -81 93.666 -81 168.999c0 139.333 65.667 238.666 197 297.999
c40 18 104 39.5 192 64.5s151 46.167 189 63.5c27.333 12 57 18 89 18c28.667 0 52.167 -9.33301 70.5 -28s27.5 -43 27.5 -73c0 -19.333 4.16699 -47.666 12.5 -84.999s12.5 -65.666 12.5 -84.999c0 -30 -9.16699 -54.333 -27.5 -73s-41.833 -28 -70.5 -28z" />
    <glyph glyph-name="t" unicode="t" horiz-adv-x="965" 
d="M808 852c-14 0 -30.499 0.667969 -49.499 2.00098s-35.5 2 -49.5 2c-15.333 0 -60.666 -5 -135.999 -15l19 -591l1 -44l1 -51c2.66699 -146 -32.333 -219 -105 -219c-26.667 0 -49.834 8.66699 -69.501 26s-29.5 39 -29.5 65c0 25.333 1 63.333 3 114s3 88.667 3 114
l-20 584c-48.667 2 -122.667 7.66699 -222 17c-59.333 8 -89 41 -89 99c0 29.333 9 53.666 27 72.999s41 29 69 29l210 -17c0 34 -1.5 79.5 -4.5 136.5s-4.5 98.167 -4.5 123.5c0 28 9.66699 51.167 29 69.5s43 27.5 71 27.5c60 0 95 -49 105 -147
c2 -24.667 3 -54.334 3 -89.001l-2 -58l-1 -62c82.667 10.667 130 16 142 16c69.333 0 114.666 -3.33301 135.999 -10c40.667 -13.333 61 -44.666 61 -93.999c0 -29.333 -9.16699 -53.5 -27.5 -72.5s-41.833 -28.5 -70.5 -28.5z" />
    <glyph glyph-name="u" unicode="u" 
d="M955 584c0 -48 0.333984 -120.002 1.00098 -216.002s1 -168 1 -216c0 -14.667 1.16699 -37 3.5 -67s3.5 -52.333 3.5 -67c0 -28.667 -9.66699 -52.167 -29 -70.5s-43 -27.5 -71 -27.5c-51.333 0 -84 31.667 -98 95c-83.333 -43.333 -179.333 -65 -288 -65
c-87.333 0 -159.666 19.333 -216.999 58c-63.333 42.667 -101 105 -113 187c-26 176.667 -39 334 -39 472c0 91.333 10 195.333 30 312c9.33301 58 41 87 95 87c28.667 0 52.667 -9.16699 72 -27.5s29 -41.833 29 -70.5c0 -30.667 -4.83301 -79.667 -14.5 -147
s-14.5 -118.666 -14.5 -153.999c0 -111.333 3.66699 -206.666 11 -285.999s18.333 -143 33 -191c22 -12 43.667 -21.167 65 -27.5s42.333 -9.5 63 -9.5c89.333 0 183.666 14.333 282.999 43l-1 203l-2 194c0 144 6.33301 269 19 375c7.33301 61.333 39.666 92 96.999 92
c28.667 0 52.667 -9.33301 72 -28s28.333 -42 27 -70z" />
    <glyph glyph-name="v" unicode="v" horiz-adv-x="996" 
d="M600 52c-2 -61.333 -32.333 -91.998 -91 -91.998c-48.667 0 -84 28.667 -106 86l-153 406l-178 459c-6.66699 17.333 -10 32.666 -10 45.999c0 27.333 10.333 50.666 31 69.999s44.667 29 72 29c40 0 68.667 -20.333 86 -61l254 -699c50 106.667 113 261.334 189 464.001
c18 53.333 46.333 128.666 85 225.999c20.667 42.667 50 64 88 64c27.333 0 51.333 -9.66699 72 -29s31 -42.333 31 -69c0 -25.333 -55 -168 -165 -428z" />
    <glyph glyph-name="w" unicode="w" horiz-adv-x="1401" 
d="M1336 895c-52 -217.333 -120 -463.002 -204 -737.002c-18.667 -60.667 -49.667 -123 -93 -187c-23.333 -35.333 -55 -52.666 -95 -51.999c-72.667 1.33301 -129.334 91.666 -170.001 270.999c-13.333 57.333 -27 135.333 -41 234l-33 223l-82 -191l-152 -413
c-8.66699 -25.333 -21.334 -44.666 -38.001 -57.999c-20 -38.667 -52 -58.667 -96 -60c-50.667 -2 -99.667 97.333 -147 298c-24 103.333 -48 243.333 -72 420l-24 150c-8.66699 60 -13 110.333 -13 151c0 28 9.83301 51.167 29.5 69.5s43.5 27.5 71.5 27.5
c50.667 0 82 -27.667 94 -83c8.66699 -39.333 15.667 -88 21 -146l15 -147l59 -449c74 205.333 150.667 442 230 710c22 74 60.333 111 115 111c52.667 0 88.334 -41.333 107.001 -124c17.333 -78 39 -198 65 -360c26.667 -168 50.334 -299 71.001 -393l73 272l129 545
c10 40.667 38.667 61 86 61c28 0 52.333 -9.5 73 -28.5s31 -41.833 31 -68.5c0 -3.33301 -3.33301 -18.666 -10 -45.999z" />
    <glyph glyph-name="x" unicode="x" horiz-adv-x="1209" 
d="M1058 858l-145.999 -137.003l-178 -177l326 -426c16.667 -21.333 25 -42.333 25 -63c0 -26 -10 -49 -30 -69s-42.667 -30 -68 -30s-48.333 12.333 -69 37c-61.333 71.333 -169.333 208.666 -324 411.999l-195 -201c-39.333 -35.333 -96.666 -90.333 -171.999 -165
c-21.333 -24 -44.333 -36 -69 -36c-25.333 0 -47.833 10 -67.5 30s-29.5 43 -29.5 69c0 20.667 8.33301 41.667 25 63c18.667 24.667 47.667 54.334 87 89.001c46 40.667 76.333 68.667 91 84l213 223l-131 189c-52.667 75.333 -98.667 130.333 -138 165
c-25.333 22.667 -38 47.334 -38 74.001s9.5 50.334 28.5 71.001s40.833 31 65.5 31c39.333 0 98.666 -51.333 177.999 -154l173 -239l196 180c81.333 76.667 136.333 136.667 165 180c21.333 31.333 46.666 47 75.999 47c26 0 49 -9.66699 69 -29s30 -41.666 30 -66.999
c0 -36.667 -31 -87 -93 -151z" />
    <glyph glyph-name="y" unicode="y" horiz-adv-x="1066" 
d="M1011 892l-346.001 -747.999c-85.333 -182 -150.666 -334.333 -195.999 -457l-66 -194c-17.333 -48 -47.333 -72 -90 -72c-28 0 -52.167 9.16699 -72.5 27.5s-30.5 41.166 -30.5 68.499c0 66.667 72 259.667 216 579l-358 689l-45 73c-18 30.667 -27 56.334 -27 77.001
c0 27.333 10.5 51.333 31.5 72s44.5 31 70.5 31c30.667 0 54.334 -11.667 71.001 -35c113.333 -157.333 235 -381.333 365 -672l148 345c53.333 119.333 104.666 222 153.999 308c21.333 37.333 49.333 56 84 56c27.333 0 51.5 -9.66699 72.5 -29s31.5 -42.333 31.5 -69
c0 -14.667 -4.33301 -31.334 -13 -50.001z" />
    <glyph glyph-name="z" unicode="z" horiz-adv-x="1102" 
d="M964 809c-59.333 -71.333 -135.333 -174.668 -228 -310.001c-107.333 -157.333 -186 -268.666 -236 -333.999c70 3.33301 131 5 183 5c26 0 64.667 -5 116 -15s90 -15 116 -15c29.333 0 53.166 -9.5 71.499 -28.5s27.5 -43.167 27.5 -72.5
c0 -30 -9.16699 -54.333 -27.5 -73s-42.166 -28 -71.499 -28c-26 0 -64.667 5 -116 15s-90 15 -116 15c-150 0 -292.333 -13.667 -427 -41c-14 -2.66699 -26.333 -4 -37 -4c-64.667 0 -97 28.333 -97 85c0 33.333 16.667 65.333 50 96c174 157.333 363.333 402.333 568 735
c-88.667 -5.33301 -153 -8 -193 -8c-98.667 0 -200 7.66699 -304 23c-59.333 8.66699 -89 41.667 -89 99c0 29.333 9 53.833 27 73.5s40.667 29.5 68 29.5c32.667 0 82 -3.83301 148 -11.5s116 -11.5 150 -11.5c45.333 0 113.333 3.16699 204 9.5s158.667 9.5 204 9.5
c56.667 0 85 -23.333 85 -70c0 -54 -25.333 -111.667 -76 -173z" />
    <glyph glyph-name="braceleft" unicode="{" horiz-adv-x="750" 
d="M259 573c36.667 18 69.3311 53.334 97.998 106.001c27.333 50 41 95 41 135c0 28.667 -2.16699 96.667 -6.5 204s-6.5 175.333 -6.5 204c0 131.333 46.667 202 140 212c22.667 0.666992 56.334 4 101.001 10c47.333 10.667 71 34 71 70c0 34.667 -19.333 62.667 -58 84
c-32 18 -66.667 27 -104 27c-42 0 -86 -9.66699 -132 -29c-132.667 -58 -199 -192.333 -199 -403l5 -199l3 -199v-28c-33.333 -9.33301 -74.666 -37 -123.999 -83c-54.667 -50.667 -82 -93.334 -82 -128.001c0 -30 31.5 -67.5 94.5 -112.5s94.5 -94.833 94.5 -149.5
c0 -18 -2.66699 -45.333 -8 -82s-8 -64 -8 -82c0 -118 27.667 -228 83 -330c66.667 -122.667 153.667 -184 261 -184c49.333 0 84.333 4 105 12c34 14 51 42 51 84c0 44 -17 71.667 -51 83c-15.333 5.33301 -50.333 8 -105 8c-46 0 -85.333 45 -118 135
c-26 72 -39 136 -39 192c0 22 2.66699 55 8 99s8 77 8 99c0 31.333 -15 74.333 -45 129c-25.333 47.333 -51.333 86 -78 116z" />
    <glyph glyph-name="bar" unicode="|" horiz-adv-x="863" 
d="M445 1715c57.333 0 86 -29.668 86 -89.001v-1871c-1.33301 -78 -30.333 -117 -87 -117c-39.333 0 -66 25.333 -80 76c-7.33301 26.667 -11 130.334 -11 311.001v1601c0 26 8.66699 47.333 26 64s39.333 25 66 25z" />
    <glyph glyph-name="braceright" unicode="}" horiz-adv-x="750" 
d="M444 573c-36.667 18 -69.3311 53.334 -97.998 106.001c-27.333 50 -41 95 -41 135c0 28.667 2.16699 96.667 6.5 204s6.5 175.333 6.5 204c0 131.333 -46.667 202 -140 212c-22.667 0.666992 -56.334 4 -101.001 10c-47.333 10.667 -71 34 -71 70
c0 34.667 19.333 62.667 58 84c32 18 66.667 27 104 27c42 0 86 -9.66699 132 -29c132.667 -58 199 -192.333 199 -403l-5 -199l-3 -199v-28c33.333 -9.33301 74.666 -37 123.999 -83c54.667 -50.667 82 -93.334 82 -128.001c0 -30 -31.667 -67.5 -95 -112.5
s-95 -94.833 -95 -149.5c0 -18 2.83301 -45.333 8.5 -82s8.5 -64 8.5 -82c0 -118 -27.667 -228 -83 -330c-66.667 -122.667 -153.667 -184 -261 -184c-49.333 0 -84.333 4 -105 12c-34 14 -51 42 -51 84c0 44 17 71.667 51 83c15.333 5.33301 50.333 8 105 8
c46 0 85.333 45 118 135c26 72 39 136 39 192c0 22 -2.66699 55 -8 99s-8 77 -8 99c0 31.333 15 74.333 45 129c25.333 47.333 51.333 86 78 116z" />
    <glyph glyph-name="asciitilde" unicode="~" horiz-adv-x="1224" 
d="M467 934c58 0 110.668 -23.668 158.001 -71.001l110 -133c44 -49.333 89.667 -76 137 -80c27.333 -2 53.833 38 79.5 120s59.167 123 100.5 123c25.333 0 46.666 -8.16699 63.999 -24.5s26 -37.166 26 -62.499c0.666992 -88 -26 -166 -80 -234
c-54.667 -70 -119 -105 -193 -105s-141.667 25 -203 75c-34.667 28.667 -75.667 75 -123 139c-36.667 50 -62 75 -76 75c-58 0 -123.667 -63 -197 -189c-19.333 -34 -45 -51 -77 -51c-24 0 -45.5 8.5 -64.5 25.5s-28.5 37.5 -28.5 61.5c0 12.667 3.33301 26.667 10 42
c36 78 83 143.333 141 196c68.667 62 140.667 93 216 93z" />
    <glyph glyph-name="nonbreakingspace" unicode="&#xa0;" horiz-adv-x="612" 
 />
    <glyph glyph-name="exclamdown" unicode="&#xa1;" horiz-adv-x="487" 
d="M122 23v1112c0 60 29.667 90 89 90s89 -30 89 -90c0 -26.667 0.666992 -67.167 2 -121.5s2 -94.833 2 -121.5c0 -96.667 -0.666992 -241.5 -2 -434.5s-2 -337.833 -2 -434.5c0 -59.333 -29.667 -89 -89 -89s-89 29.667 -89 89zM120 1516c0 24 9.5 44.832 28.5 62.499
s40.833 26.5 65.5 26.5c26 0 52.667 -17.333 80 -52c25.333 -32.667 38 -62.667 38 -90c0 -24 -9.5 -44.667 -28.5 -62s-40.5 -26 -64.5 -26c-26 0 -52.667 17.333 -80 52c-26 32.667 -39 62.334 -39 89.001z" />
    <glyph glyph-name="cent" unicode="&#xa2;" horiz-adv-x="1276" 
d="M1107 609c-87.333 -218 -237.332 -329.333 -449.999 -334l1 -57c0 -124 -30.667 -186 -92 -186c-56 0 -84 29.333 -84 88c0 58 1.33301 119.333 4 184c-140 46.667 -237 117 -291 211c-46.667 81.333 -70 200.666 -70 357.999c0 126 40.333 246.833 121 362.5
s180.667 190.834 300 225.501c-1.33301 47.333 0 117.666 4 210.999c5.33301 45.333 30.666 68 75.999 68c23.333 0 43.833 -8.33301 61.5 -25s26.5 -37 26.5 -61l-2 -177c73.333 -7.33301 141.333 -30.333 204 -69c20 44 54.667 66 104 66c42 0 63 -21.667 63 -65
c0 -36 -10.333 -85.667 -31 -149c-24 -74 -49.333 -111 -76 -111c-11.333 0 -26.333 8.33301 -45 25c-51.333 46.667 -84.333 75.334 -99 86.001c-38 26.667 -79 42.667 -123 48c-2.66699 -115.333 -9.66699 -259.666 -21 -432.999l-28 -432c80 3.33301 142 28 186 74
l110 161c22.667 32 46.667 48 72 48c22.667 0 42.667 -7.83301 60 -23.5s26 -34.834 26 -57.501c0 -11.333 -2.33301 -23.333 -7 -36zM291.001 873c0 -114.667 10.332 -195.334 30.999 -242.001c26.667 -61.333 84 -111.666 172 -150.999l49 801
c-71.333 -34.667 -131.166 -91.5 -179.499 -170.5s-72.5 -158.167 -72.5 -237.5z" />
    <glyph glyph-name="sterling" unicode="&#xa3;" horiz-adv-x="1625" 
d="M234 890l71.999 0.999023c-1.33301 18.667 -2 37 -2 55c0 182.667 47 335.334 141 458.001c105.333 137.333 251 206 437 206c107.333 0 205.333 -23 294 -69c107.333 -56 161 -132.333 161 -229c0 -24 -9.33301 -44.333 -28 -61s-40.334 -25 -65.001 -25
c-34 0 -61 20 -81 60c-30 59.333 -69.667 100.333 -119 123c-42 18.667 -100.333 28 -175 28c-128.667 0 -227.667 -50.667 -297 -152c-60 -88.667 -90 -201.667 -90 -339c0 -14 0.333008 -28 1 -42c100 8 177 12 231 12c38.667 0 96.667 -2 174 -6s135.333 -6 174 -6
c26 0 47.333 -8.33301 64 -25s25 -38 25 -64s-8.33301 -47.333 -25 -64s-38 -25 -64 -25c-38.667 0 -96.667 2 -174 6s-135.333 6 -174 6c-52.667 0 -120.334 -3.33301 -203.001 -10c40.667 -177.333 61 -294.333 61 -351c0 -82.667 -13.333 -159.667 -40 -231h27
c64.667 1.33301 142.334 -18 233.001 -58s168 -60 232 -60c113.333 0 188 23.333 224 70c12 16 24.333 59.333 37 130c8.66699 47.333 36.667 71 84 71c60 0 90 -32 90 -96c0 -35.333 -7 -75 -21 -119c-50.667 -156 -188.667 -234 -414 -234
c-65.333 0 -144.333 19.667 -237 59s-171.667 59 -237 59c-48 0 -100.833 -14 -158.5 -42s-91.167 -42 -100.5 -42c-23.333 0 -43.666 8.83301 -60.999 26.5s-26 38.167 -26 61.5c0 20 16.333 47 49 81c44 44.667 74.333 82.667 91 114c33.333 58.667 50 128.667 50 210
c0 58.667 -19.333 171.334 -58 338.001c-48.667 -2.66699 -99 -4 -151 -4c-98.667 0 -148 31 -148 93c0 25.333 8.33301 46.666 25 63.999s37.334 26 62.001 26c12.667 0 31.167 -0.666992 55.5 -2s42.5 -2 54.5 -2z" />
    <glyph glyph-name="currency" unicode="&#xa4;" horiz-adv-x="1253" 
d="M631 585c44 0 80.667 20 110 60c24 33.333 36 66 36 98c0 55.333 -11.833 96.666 -35.5 123.999s-59.167 41 -106.5 41c-46 0 -89.667 -12.333 -131 -37c-46 -27.333 -69 -59.666 -69 -96.999c0 -58 19 -104.333 57 -139c36 -33.333 82.333 -50 139 -50zM473 1078
c26 9.33301 55.333 16.3311 88 20.998s68.667 7 108 7c16 0 34.667 -3.66699 56 -11s45.666 -18.333 72.999 -33l171 105c90 54 144.333 81 163 81c26.667 0 49.834 -10.667 69.501 -32s29.5 -45.333 29.5 -72c0 -33.333 -16 -60.333 -48 -81
c-54.667 -36 -135 -85 -241 -147c11.333 -24 19.666 -50.5 24.999 -79.5s8 -60.167 8 -93.5c0 -30.667 -6.33301 -62.667 -19 -96s-31.667 -68 -57 -104c41.333 -32 85.666 -72.667 132.999 -122c62 -65.333 93 -112 93 -140c0 -26.667 -10.5 -50.167 -31.5 -70.5
s-44.833 -30.5 -71.5 -30.5c-26 0 -50 11 -72 33l-93 100c-37.333 38.667 -71.666 68.667 -102.999 90c-16.667 -6 -35.5 -10.667 -56.5 -14s-44.5 -5 -70.5 -5c-31.333 0 -65 6.66699 -101 20s-74.333 33 -115 59l-177 -206c-22 -25.333 -47 -38 -75 -38
c-26.667 0 -50.5 10 -71.5 30s-31.5 43.333 -31.5 70c0 21.333 8 42.333 24 63c46 48.667 110.667 125.334 194 230.001c-25.333 49.333 -38 103.333 -38 162c0 36 6.16699 70 18.5 102s30.5 62 54.5 90l-115 122c-52.667 59.333 -79 103.333 -79 132
c0 26.667 10.667 49.834 32 69.501s45.333 29.5 72 29.5c30 0 56 -14 78 -42c46.667 -46.667 105.334 -113 176.001 -199z" />
    <glyph glyph-name="yen" unicode="&#xa5;" horiz-adv-x="1302" 
d="M575 573l-0.00195312 36c-18.667 26.667 -49 73.334 -91 140.001c-22 0 -96.333 6.66699 -223 20c-52 5.33301 -78 33 -78 83c0 52 28 78 84 78c37.333 0 77 -2 119 -6c-168.667 289.333 -253 439.666 -253 450.999c0 22.667 8.83301 42.167 26.5 58.5
s37.5 24.5 59.5 24.5c28 0 51 -13.667 69 -41c55.333 -85.333 96.333 -154.333 123 -207c34.667 -70.667 74.334 -142.334 119.001 -215.001l123 -207c86.667 102.667 178.334 255.334 275.001 458.001c20 33.333 47.333 84 82 152c16 36 41 54 75 54
c22.667 0 42.834 -7.83301 60.501 -23.5s26.5 -35.167 26.5 -58.5c0 -19.333 -34.333 -90.666 -103 -213.999l-130 -233l111 13c55.333 0 83 -27.667 83 -83c0 -56 -27.667 -84 -83 -84c-23.333 0 -57.666 -3.33301 -102.999 -10s-79 -10.334 -101 -11.001
c-25.333 -30.667 -62 -78.667 -110 -144v-46c29.333 -1.33301 69.333 -2 120 -2c12.667 0 31.5 1.83301 56.5 5.5s43.833 5.5 56.5 5.5c23.333 0 42.5 -8.33301 57.5 -25s22.5 -36.667 22.5 -60c0 -44 -22.333 -71 -67 -81c-32.667 -7.33301 -114.667 -8.33301 -246 -3v-203
c0 -19.333 1.5 -46.833 4.5 -82.5s4.5 -62.834 4.5 -81.501c0 -56 -27.333 -84 -82 -84c-55.333 0 -83 28 -83 84c0 20.667 -1 52.167 -3 94.5s-3 73.833 -3 94.5v180c-48 4.66699 -90.667 7.33398 -128 8.00098c-113.333 1.33301 -170.333 32 -171 92
c-1.33301 53.333 33 80 103 80c11.333 0 27.166 -0.666992 47.499 -2s34.166 -2 41.499 -2c52 0 88 -1 108 -3z" />
    <glyph glyph-name="brokenbar" unicode="&#xa6;" horiz-adv-x="828" 
d="M484 1620l-2.99902 -455.999c1.33301 -50.667 0.666016 -126.334 -2.00098 -227.001c-2.66699 -40.667 -28 -61 -76 -61c-47.333 0 -71 29.333 -71 88c0 72.667 0.5 182 1.5 328s1.5 255.333 1.5 328c0 50 25 75 75 75c49.333 0 74 -25 74 -75zM479.001 641.001
c0 -8.66699 -0.5 -22.168 -1.5 -40.501s-1.5 -32.166 -1.5 -41.499c0 -58.667 2.5 -146.667 7.5 -264s7.5 -205.333 7.5 -264c0 -50 -25 -75 -75 -75s-75 25 -75 75c0 58.667 -2.33301 146.667 -7 264s-7 205.333 -7 264c0 104.667 27 157 81 157c47.333 0 71 -25 71 -75z
" />
    <glyph glyph-name="section" unicode="&#xa7;" horiz-adv-x="1300" 
d="M1005 517c62 -69.333 92.998 -148.668 92.998 -238.001c0 -119.333 -46.667 -210.666 -140 -273.999c-81.333 -54.667 -185.666 -82 -312.999 -82c-153.333 0 -276 31.333 -368 94c-106.667 72.667 -160 179.667 -160 321c0 60 29.667 90 89 90
c39.333 0 67 -18.333 83 -55l31 -105c40.667 -124 149.334 -186 326.001 -186c74 0 135.333 14 184 42c60 34.667 90 86.334 90 155.001c0 90.667 -62.333 156.667 -187 198l-348 112c-62.667 32.667 -109.667 75.667 -141 129s-47 117 -47 191
c0 44.667 9.5 86.167 28.5 124.5s47.5 73.833 85.5 106.5c-32 52 -48 112.333 -48 181c0 102.667 44.667 183.667 134 243c77.333 51.333 170 77 278 77c155.333 0 283 -53.333 383 -160c22.667 -24.667 34 -49.334 34 -74.001c0 -23.333 -8 -44.166 -24 -62.499
s-35.667 -27.5 -59 -27.5c-17.333 0 -61.833 26.333 -133.5 79s-137.5 79 -197.5 79c-52 0 -100.667 -12 -146 -36c-56 -28.667 -84 -67.667 -84 -117c0 -78.667 60.667 -148.334 182 -209.001l292 -131c118.667 -71.333 178 -174.333 178 -309
c0 -32 -9.66699 -64.5 -29 -97.5s-41.333 -52.5 -66 -58.5zM374.998 908.998c0 -72 34.333 -128.333 103 -169c42.667 -25.333 117.5 -51.666 224.5 -78.999s178.167 -51.333 213.5 -72c0.666992 4.66699 2.83398 15.667 6.50098 33s5.5 31.333 5.5 42
c0 72 -65.333 142.333 -196 211l-291 139c-14.667 -6 -29.334 -20.833 -44.001 -44.5s-22 -43.834 -22 -60.501z" />
    <glyph glyph-name="dieresis" unicode="&#xa8;" horiz-adv-x="1139" 
d="M332 1372c87.333 0 131 -35 131 -105c0 -20 -14.667 -39.333 -44 -58c-26.667 -16.667 -51.667 -25 -75 -25c-82 0 -123 34.333 -123 103c0 19.333 12.5 38.333 37.5 57s49.5 28 73.5 28zM871 1380c22.667 0 45.666 -10.5 68.999 -31.5s35 -41.5 35 -61.5
c0 -61.333 -47.667 -92 -143 -92c-27.333 0 -51.666 7 -72.999 21c-24 16 -36 37 -36 63c0 46 15 75.667 45 89c16.667 8 51 12 103 12z" />
    <glyph glyph-name="copyright" unicode="&#xa9;" horiz-adv-x="1629" 
d="M945 1438c-200.667 1.33301 -364.331 -48 -490.998 -148c-124 -98.667 -186 -225 -186 -379c0 -176.667 49 -303.334 147 -380.001c87.333 -69.333 221.666 -103.333 402.999 -102c147.333 0.666992 274.666 67.667 381.999 201c95.333 118 143 239 143 363
c0 132 -31 236.667 -93 314c-69.333 86.667 -171 130.334 -305 131.001zM903.003 1620c192.667 0 345.333 -62.001 458 -186.001c107.333 -118 161 -271.667 161 -461c0 -165.333 -67.333 -323.666 -202 -474.999c-145.333 -162.667 -312.666 -245 -501.999 -247
c-485.333 -5.33301 -728 214.667 -728 660c0 181.333 82.667 344.833 248 490.5s353.666 218.5 564.999 218.5zM893.002 1139c-76 0 -143.997 -18.334 -203.997 -55.001c-62 -38.667 -93 -85.334 -93 -140.001c0 -38 21.667 -70 65 -96c38 -22.667 77.333 -34 118 -34
c49.333 0 99.833 20.5 151.5 61.5s84.5 61.5 98.5 61.5c24.667 0 46 -9.5 64 -28.5s27 -40.5 27 -64.5c0 -46.667 -37.833 -92.667 -113.5 -138s-151.5 -68.666 -227.5 -69.999c-90.667 -2 -172.334 25.667 -245.001 83c-77.333 60.667 -116 135.667 -116 225
c0 104.667 53 194.667 159 270c97.333 69.333 200.333 104 309 104c37.333 0 69.666 -9.33301 96.999 -28c31.333 -21.333 47 -49.666 47 -84.999c0 -51.333 -26 -77 -78 -77c-7.33301 0 -17.333 1.83301 -30 5.5s-22.334 5.5 -29.001 5.5z" />
    <glyph glyph-name="ordfeminine" unicode="&#xaa;" horiz-adv-x="1079" 
d="M649 1479l-177.999 3.99902c-42.667 2.66699 -81.834 -15.5 -117.501 -54.5s-53.5 -79.833 -53.5 -122.5c0 -31.333 9 -69.666 27 -114.999c20.667 -52 42.667 -78 66 -78c77.333 0.666992 139 38.667 185 114c39.333 64.667 63 148.667 71 252zM861.001 1532
l49.001 -537.999c1.33301 -32 -8 -57.167 -28 -75.5s-43.667 -27.5 -71 -27.5c-63.333 0 -96.333 31.667 -99 95l-5 90c-82 -111.333 -186.667 -167 -314 -167c-76 0 -145.333 49.333 -208 148c-56 87.333 -84 170.333 -84 249c0 99.333 38.333 187 115 263
s166 113.333 268 112c104 -0.666992 166.333 -2.33398 187 -5.00098c81.333 -10.667 134.666 -37.667 159.999 -81c16.667 -16 26.667 -37 30 -63z" />
    <glyph glyph-name="guillemotleft" unicode="&#xab;" horiz-adv-x="1183" 
d="M298 614c37.333 -27.333 83.334 -69.665 138.001 -126.998c64.667 -67.333 109 -111.333 133 -132s36 -43.334 36 -68.001s-9 -46.334 -27 -65.001s-39 -28 -63 -28c-18.667 0 -37.334 7 -56.001 21c-26.667 19.333 -83.667 74.666 -171 165.999
c-66.667 70 -131 117 -193 141c-50.667 18.667 -76 46.334 -76 83.001c0 33.333 23 61 69 83c62 30 130 84 204 162c103.333 108 164.833 170.167 184.5 186.5s39.5 24.5 59.5 24.5c24 0 45.167 -9.16699 63.5 -27.5s27.5 -39.833 27.5 -64.5c0 -22.667 -10 -44 -30 -64
c-64 -68 -163.667 -165 -299 -291zM752.001 592.001c37.333 -27.333 83.333 -69.332 138 -125.999c64 -67.333 108 -111.5 132 -132.5s36 -43.833 36 -68.5c0 -24 -9 -45.5 -27 -64.5s-39 -28.5 -63 -28.5c-18 0 -36.333 7 -55 21c-26.667 19.333 -84 75 -172 167
c-66.667 70 -131 116.667 -193 140c-50 19.333 -75 47 -75 83c0 34 22.667 62 68 84c62.667 29.333 131 83 205 161c102.667 108 164 170.333 184 187s40 25 60 25c24 0 45.167 -9.33301 63.5 -28s27.5 -40 27.5 -64c0 -22.667 -10.333 -44.334 -31 -65.001
c-64 -68 -163.333 -165 -298 -291z" />
    <glyph glyph-name="logicalnot" unicode="&#xac;" horiz-adv-x="984" 
d="M905 337c0 -29.333 -7.33008 -51.5 -21.9971 -66.5s-37 -22.5 -67 -22.5c-59.333 0 -89 29.667 -89 89l-1 115l-1 116c-250.667 -14.667 -424.667 -22 -522 -22c-103.333 0 -155 30.667 -155 92c0 43.333 18.333 70.333 55 81c12.667 3.33301 46 5 100 5
c46.667 0 117.167 1.33301 211.5 4s165.166 4 212.499 4c13.333 0 33.666 0.833008 60.999 2.5s47.666 2.5 60.999 2.5c54.667 0 95.667 -7.83301 123 -23.5s41 -39.167 41 -70.5c1.33301 -28.667 0.333008 -79.667 -3 -153z" />
    <glyph glyph-name="hyphenminus" unicode="&#xad;" horiz-adv-x="853" 
d="M679 475c-90.667 -9.33301 -252 -14 -484 -14c-56 0 -84 26 -84 78s28 78 84 78c52.667 0 131.667 2.33301 237 7s184.333 7 237 7c59.333 0 89 -26 89 -78c0 -46 -26.333 -72 -79 -78z" />
    <glyph glyph-name="registered" unicode="&#xae;" horiz-adv-x="1629" 
d="M269 844c0 -154 48.333 -270.999 145 -350.999c87.333 -72 205.666 -108 354.999 -108c146.667 0 278 49.333 394 148c129.333 110 194.333 250.333 195 421c0.666992 133.333 -39.666 248.666 -120.999 345.999c-86 102.667 -194.333 154 -325 154
c-214 0 -374.667 -50.833 -482 -152.5s-161 -254.167 -161 -457.5zM929 1631c174 0 320.333 -69.668 439 -209.001c114 -133.333 171 -288.333 171 -465c0 -218.667 -82.667 -401 -248 -547c-152.667 -135.333 -326.667 -203 -522 -203c-198.667 0 -359 53 -481 159
c-131.333 114 -197 273.333 -197 478c0 244.667 69.667 435.334 209 572.001c145.333 143.333 355 215 629 215zM664 1011c104 13.333 167.667 23 191 29c90.667 22.667 136 56 136 100c-30 22 -103.667 33 -221 33h-39c-18.667 0 -34 -1.66699 -46 -5
c-3.33301 -34.667 -10.333 -87 -21 -157zM851 858c38 -44 62.332 -71 72.999 -81c28 -26 59 -45 93 -57c46.667 -16.667 70 -45 70 -85c0 -24.667 -8.33301 -46.167 -25 -64.5s-37 -27.5 -61 -27.5c-49.333 0 -97 18.333 -143 55
c-27.333 21.333 -65.666 60.666 -114.999 117.999c-48 54.667 -85.333 92 -112 112c-7.33301 -47.333 -20.666 -117.666 -39.999 -210.999c-12.667 -48.667 -41.334 -73 -86.001 -73c-24.667 0 -46 8.16699 -64 24.5s-27 36.833 -27 61.5
c0 5.33301 0.666992 11.666 2 18.999l87 503c16 116 52 174.667 108 176c10 0 27.5 3.83301 52.5 11.5s48.167 11.5 69.5 11.5c123.333 0 215 -8.66699 275 -26c108 -31.333 162 -92.666 162 -183.999c0 -150.667 -106.333 -245 -319 -283z" />
    <glyph glyph-name="overscore" unicode="&#xaf;" horiz-adv-x="1284" 
d="M973 1703c-47.333 0 -118.332 1.66699 -212.999 5s-165.667 5 -213 5h-445c-15.333 0 -38.333 -1.66699 -69 -5s-53.334 -5 -68.001 -5v185c66.667 0 166.667 0.5 300 1.5s233.333 1.5 300 1.5c47.333 0 117.833 -1.83301 211.5 -5.5s164.167 -5.5 211.5 -5.5l335 8v-185
h-350z" />
    <glyph glyph-name="degree" unicode="&#xb0;" horiz-adv-x="838" 
d="M413 1680c103.333 0 187.999 -34.8301 253.999 -104.497s99 -157.834 99 -264.501c0 -94.667 -38.333 -175.334 -115 -242.001c-73.333 -63.333 -158.666 -95 -255.999 -95c-102 0 -183.333 36.333 -244 109c-55.333 67.333 -83 151.333 -83 252
c0 99.333 35 182.666 105 249.999c67.333 63.333 147.333 95 240 95zM217.999 1335c0 -56.667 14 -104.666 42 -143.999c32.667 -45.333 77.667 -68 135 -68c56 0 106.333 17.333 151 52c47.333 37.333 71 82.666 71 135.999c0 65.333 -18.5 118.333 -55.5 159
s-86.5 61 -148.5 61c-50 0 -94.333 -18 -133 -54c-41.333 -38.667 -62 -86 -62 -142z" />
    <glyph glyph-name="plusminus" unicode="&#xb1;" horiz-adv-x="984" 
d="M913 643c0 -24.667 -8.16309 -46.167 -24.4961 -64.5s-36.833 -27.5 -61.5 -27.5c-8 0 -20.167 1.33301 -36.5 4s-28.5 4 -36.5 4l-100 -2c-40.667 -1.33301 -74 -1.33301 -100 0c1.33301 -27.333 2 -53.333 2 -78c0 -82 -2 -133 -6 -153
c-12.667 -62.667 -44.334 -94 -95.001 -94c-52.667 0 -79 30 -79 90l-1 116l-1 115c-78.667 -4.66699 -135.667 -7 -171 -7c-103.333 0 -155 30.667 -155 92c0 42.667 17 69.334 51 80.001c14 4 48.667 6 104 6c36 0 93 2.33301 171 7l-1 151
c-0.666992 109.333 30.666 164 93.999 164c24.667 0 46 -8.33301 64 -25s27 -37.334 27 -62.001c0 -12 -1.16699 -30.167 -3.5 -54.5s-3.5 -42.833 -3.5 -55.5l1 -114l75 -3c13.333 0 33.666 0.833008 60.999 2.5s47.666 2.5 60.999 2.5c109.333 0 164 -31.333 164 -94z
M755.004 -114c8 0 19.999 -1.33301 35.999 -4s28 -4 36 -4c24.667 0 45.167 9.16699 61.5 27.5s24.5 39.833 24.5 64.5c0 62 -54.667 93 -164 93c-22 0 -54.833 -0.333008 -98.5 -1s-76.5 -1 -98.5 -1c-43.333 0 -108.666 -1.66699 -195.999 -5s-153 -5 -197 -5
c-74 0 -111 -29 -111 -87c0 -61.333 51.667 -92 155 -92c61.333 0 153.333 2.33301 276 7s214.667 7 276 7z" />
    <glyph glyph-name="twosuperior" unicode="&#xb2;" horiz-adv-x="1333" 
d="M551 1056l84 -2.00195l84 -2c22 0 54.5 3.33301 97.5 10s74.833 10 95.5 10s37.834 -7.66699 51.501 -23s20.5 -33.333 20.5 -54c0 -61.333 -89.333 -92 -268 -92c-22.667 0 -56.167 0.666992 -100.5 2s-77.833 2 -100.5 2c-35.333 0 -65.333 7.66699 -90 23
c-29.333 18.667 -44 44.667 -44 78c0 88 35.333 163.333 106 226l196 133c70.667 46.667 106 94.667 106 144c0 19.333 -12.667 41 -38 65s-48 36 -68 36c-46 0 -82 -13.667 -108 -41l-48 -78c-16.667 -27.333 -37.667 -41 -63 -41c-20.667 0 -38.667 6.83301 -54 20.5
s-23 30.834 -23 51.501c0 64 34.333 118.333 103 163c61.333 40.667 127 61 197 61c62.667 0 120.167 -24.5 172.5 -73.5s78.5 -103.5 78.5 -163.5c0 -86 -23.333 -155 -70 -207c-24.667 -28 -76.667 -66.333 -156 -115c-74.667 -45.333 -128.334 -89.666 -161.001 -132.999
z" />
    <glyph glyph-name="threesuperior" unicode="&#xb3;" horiz-adv-x="1333" 
d="M852 1314c63.333 -46 94.999 -122.998 94.999 -230.998c0 -76 -37.333 -135 -112 -177c-61.333 -34 -133.666 -51 -216.999 -51c-136 0 -204 32.333 -204 97c0 20.667 7.33301 38.834 22 54.501s32 23.5 52 23.5c6.66699 0 24.667 -4.16699 54 -12.5
s54.666 -12.5 75.999 -12.5c36 0 71.333 5 106 15c49.333 15.333 74 36.333 74 63c0 67.333 -21.333 109.333 -64 126l-118 14c-42.667 6 -64 29.333 -64 70c0 37.333 34.833 65.166 104.5 83.499s104.5 48.166 104.5 89.499c0 56.667 -51 85 -153 85
c-9.33301 0 -23.333 -2.83301 -42 -8.5s-33 -8.5 -43 -8.5c-42 0 -63 19.667 -63 59c0 34.667 16.667 62 50 82c28.667 17.333 61.334 26 98.001 26c82 0 150.667 -18 206 -54c64 -42.667 96 -103 96 -181c0 -60.667 -19.333 -111.334 -58 -152.001z" />
    <glyph glyph-name="acute" unicode="&#xb4;" horiz-adv-x="1139" 
d="M304 1187c-24 0 -45.167 9.33105 -63.5 27.998s-27.5 40 -27.5 64c0 22.667 10.333 44.334 31 65.001c28.667 28 72.334 81 131.001 159c44 57.333 93 105 147 143c18 12.667 35.667 19 53 19c24 0 45 -9.5 63 -28.5s27 -40.5 27 -64.5c0 -26.667 -12.667 -50 -38 -70
c-46.667 -37.333 -91.667 -85.666 -135 -144.999c-45.333 -62.667 -88.333 -111 -129 -145c-18.667 -16.667 -38.334 -25 -59.001 -25z" />
    <glyph glyph-name="mu1" unicode="&#xb5;" 
d="M318 -24l-113.001 -318.999c-17.333 -42 -45.666 -63 -84.999 -63c-26 0 -48.833 8.66699 -68.5 26s-29.5 39 -29.5 65c0 15.333 25.667 95.333 77 240c54.667 152 85.334 247.667 92.001 287l11 136c12 115.333 28.333 221.666 49 318.999c23.333 108 55.333 212 96 312
c23.333 58 61.333 87 114 87c54.667 0 82 -25.333 82 -76c0 -25.333 -13.667 -77 -41 -155c-32 -92 -50 -148 -54 -168c-39.333 -180.667 -59 -326.334 -59 -437.001c0 -14.667 0.333008 -28 1 -40c19.333 -12 39 -21.167 59 -27.5s40.333 -9.5 61 -9.5
c89.333 0 187 14.333 293 43l77 389c32 154 66.333 281.667 103 383c22 61.333 60.667 92 116 92c54.667 0 82 -24.333 82 -73c0 -17.333 -15 -80.666 -45 -189.999l-57 -213l-90 -432c-3.33301 -30 -10.333 -74.667 -21 -134c-16 -65.333 -56.333 -98 -121 -98
c-51.333 0 -77.333 31.667 -78 95c-92 -43.333 -192.667 -65 -302 -65c-28.667 0 -55.334 2.16699 -80.001 6.5s-47.667 10.833 -69 19.5z" />
    <glyph glyph-name="paragraph" unicode="&#xb6;" horiz-adv-x="1421" 
d="M1326 1249c0 -115.333 -28.998 -350.667 -86.998 -706c-60 -373.333 -109.333 -596 -148 -668c-20.667 -39.333 -47.334 -59 -80.001 -59c-24.667 0 -46.334 8.33301 -65.001 25s-28 37 -28 61c0 9.33301 2 21 6 35c50 158.667 99.333 376.334 148 653.001
c50.667 289.333 76 509 76 659c0 34 -5.16699 84.5 -15.5 151.5s-15.5 117.167 -15.5 150.5c0 57.333 30.333 86 91 86c43.333 0 72.333 -25.667 87 -77c20.667 -76.667 31 -180.334 31 -311.001zM819.002 1428c-177.333 -42 -311.333 -101.333 -402 -178
c-112 -96 -168 -226.667 -168 -392c0 -90 48 -163 144 -219c81.333 -47.333 171 -71 269 -71c28 0 62 6.66699 102 20c38 218 57 447.333 57 688zM995.002 1477l2.99902 -96.998c0 -251.333 -16.667 -515.666 -50 -792.999c-42 -349.333 -85.667 -590.666 -131 -723.999
c-14.667 -39.333 -41.667 -59 -81 -59c-24.667 0 -46.334 8.16699 -65.001 24.5s-28 36.833 -28 61.5c0 7.33301 1.33301 16.666 4 27.999c15.333 61.333 30 140.666 44 237.999l35 240c-22 -4 -43.333 -6 -64 -6c-149.333 0 -281.666 40 -396.999 120
c-129.333 89.333 -194 205.333 -194 348c0 167.333 47.333 311.666 142 432.999c90.667 116 217 202.667 379 260l357 99c14 4.66699 25.667 7 35 7c24.667 0 45.334 -9.5 62.001 -28.5s25 -40.833 25 -65.5c0 -42.667 -25.333 -71.334 -76 -86.001z" />
    <glyph glyph-name="periodcentered" unicode="&#xb7;" horiz-adv-x="510" 
d="M267 592c-34.667 0 -64 12 -88 36s-36 53.333 -36 88c0 34 12 63.167 36 87.5s53.333 36.5 88 36.5c34 0 63.167 -12.167 87.5 -36.5s36.5 -53.5 36.5 -87.5c0 -34.667 -12.167 -64 -36.5 -88s-53.5 -36 -87.5 -36z" />
    <glyph glyph-name="periodcentered" unicode="&#x2219;" horiz-adv-x="510" 
d="M267 592c-34.667 0 -64 12 -88 36s-36 53.333 -36 88c0 34 12 63.167 36 87.5s53.333 36.5 88 36.5c34 0 63.167 -12.167 87.5 -36.5s36.5 -53.5 36.5 -87.5c0 -34.667 -12.167 -64 -36.5 -88s-53.5 -36 -87.5 -36z" />
    <glyph glyph-name="cedilla" unicode="&#xb8;" horiz-adv-x="1139" 
d="M865 -196c0 -82.667 -20.166 -144.833 -60.499 -186.5s-100.833 -62.5 -181.5 -62.5c-56.667 0 -110.334 10.667 -161.001 32c-64 28 -96 66.333 -96 115c0 36 22.667 54 68 54c24 0 51.167 -8.16699 81.5 -24.5s62.5 -24.5 96.5 -24.5c32.667 0.666992 57 8.66699 73 24
s24 38 24 68c0 40 -23.333 76.667 -70 110c-37.333 26.667 -79 45.667 -125 57c-43.333 10 -65 34.333 -65 73c0 50.667 24 76 72 76c80 0 156.667 -31.667 230 -95c76 -65.333 114 -137.333 114 -216z" />
    <glyph glyph-name="onesuperior" unicode="&#xb9;" horiz-adv-x="1333" 
d="M518 1035h86v453c-46.667 -28.667 -86.667 -43 -120 -43c-48 0 -72 22.667 -72 68c0 38 18.667 63.667 56 77c17.333 6.66699 56.666 32 117.999 76c54 38.667 90 58 108 58c30 0 48.667 -14 56 -42c2 -8 3 -34 3 -78v-569l45 1c54 1.33301 86.667 1.33301 98 0
c41.333 -6 62 -24 62 -54c0 -21.333 -7.16699 -39.833 -21.5 -55.5s-32.166 -23.5 -53.499 -23.5h-408c-20.667 0 -38 7.5 -52 22.5s-21 32.833 -21 53.5c0 29.333 13.333 47.333 40 54c6.66699 1.33301 32 2 76 2z" />
    <glyph glyph-name="ordmasculine" unicode="&#xba;" horiz-adv-x="920" 
d="M861 1348c0 -152 -35.1689 -266 -105.502 -342s-176.166 -114 -317.499 -114c-115.333 0 -212.666 45.333 -291.999 136c-70.667 81.333 -106 169.333 -106 264c0 98 46.667 190.833 140 278.5s193 131.167 299 130.5c82.667 -0.666992 168 -43.667 256 -129
c84 -82 126 -156.667 126 -224zM450.998 1494c-51.333 0 -99.5 -22.833 -144.5 -68.5s-67.5 -90.167 -67.5 -133.5c0 -58 20.833 -108.667 62.5 -152s91.167 -65 148.5 -65c62 0 114 30.667 156 92c38 54.667 57 115 57 181c0 34.667 -19.667 67 -59 97
c-42.667 32.667 -93.667 49 -153 49z" />
    <glyph glyph-name="guillemotright" unicode="&#xbb;" horiz-adv-x="1183" 
d="M802 614c-37.333 -27.333 -83.3301 -69.665 -137.997 -126.998c-64.667 -67.333 -108.834 -111.333 -132.501 -132s-35.5 -43.334 -35.5 -68.001s9 -46.334 27 -65.001s39 -28 63 -28c18 0 36.333 7 55 21c26.667 19.333 83.667 74.666 171 165.999
c67.333 70 131.666 117 192.999 141c50.667 18.667 76 46.334 76 83.001c0 33.333 -23 61 -69 83c-62 30 -130 84 -204 162c-103.333 108 -164.833 170.167 -184.5 186.5s-39.5 24.5 -59.5 24.5c-24 0 -45.167 -9.16699 -63.5 -27.5s-27.5 -39.833 -27.5 -64.5
c0 -22.667 10.333 -44 31 -64c63.333 -68 162.666 -165 297.999 -291zM348.003 592.001c-37.333 -27.333 -83 -69.332 -137 -125.999c-64.667 -67.333 -109 -111.5 -133 -132.5s-36 -43.833 -36 -68.5c0 -24 9 -45.5 27 -64.5s39 -28.5 63 -28.5c18 0 36.333 7 55 21
c26.667 19.333 84 75 172 167c66.667 70 131 116.667 193 140c50 19.333 75 47 75 83c0 34 -22.667 62 -68 84c-62.667 29.333 -131 83 -205 161c-102.667 108 -164 170.333 -184 187s-40 25 -60 25c-24 0 -45.167 -9.33301 -63.5 -28s-27.5 -40 -27.5 -64
c0 -22.667 10.333 -44.334 31 -65.001c64 -68 163.333 -165 298 -291z" />
    <glyph glyph-name="onequarter" unicode="&#xbc;" horiz-adv-x="1333" 
d="M518 1035h86v453c-46.667 -28.667 -86.667 -43 -120 -43c-48 0 -72 22.667 -72 68c0 38 18.667 63.667 56 77c17.333 6.66699 56.666 32 117.999 76c54 38.667 90 58 108 58c30 0 48.667 -14 56 -42c2 -8 3 -34 3 -78v-569l45 1c54 1.33301 86.667 1.33301 98 0
c41.333 -6 62 -24 62 -54c0 -21.333 -7.16699 -39.833 -21.5 -55.5s-32.166 -23.5 -53.499 -23.5h-408c-20.667 0 -38 7.5 -52 22.5s-21 32.833 -21 53.5c0 29.333 13.333 47.333 40 54c6.66699 1.33301 32 2 76 2zM509 741l464 -13.999c38 0.666992 93.667 -2.33301 167 -9
c47.333 -8.66699 71 -33.334 71 -74.001c0 -50 -26.333 -75 -79 -75l-204 11c-141.333 7.33301 -281 11 -419 11c-30 0 -75.333 -1 -136 -3s-106 -3 -136 -3c-50 0 -75 25 -75 75s25 75 75 75c30 0 75.333 1 136 3s106 3 136 3zM673 18.001l2.00098 225
c-78.667 -91.333 -145.334 -166 -200.001 -224c20.667 2 44.667 3 72 3zM813.001 306.001l4.00098 -291l57 1c84.667 0.666992 127 -23.666 127 -72.999c0 -32 -21.667 -48 -65 -48c-15.333 0 -35 1.33301 -59 4l-58 7l2 -173c0 -50 -25 -75 -75 -75s-75 25 -75 75l1 171
l-323 -16c-52.667 0 -79 25.667 -79 77c0 31.333 14.333 61.666 43 90.999c44.667 44.667 104 112 178 202c78 96 136.333 164 175 204c25.333 26.667 56.666 40 93.999 40c20 0 38 -7.16699 54 -21.5s24 -31.5 24 -51.5c0 -14 -4.16699 -34.5 -12.5 -61.5
s-12.5 -47.5 -12.5 -61.5z" />
    <glyph glyph-name="onehalf" unicode="&#xbd;" horiz-adv-x="1333" 
d="M518 1035h85.999v453c-46.667 -28.667 -86.667 -43 -120 -43c-48 0 -72 22.667 -72 68c0 38 18.667 63.667 56 77c17.333 6.66699 56.666 32 117.999 76c54 38.667 90 58 108 58c30.667 0 49.334 -15 56.001 -45c2 -6.66699 3 -34 3 -82v-562l45 1
c54 1.33301 86.667 1.33301 98 0c41.333 -6 62 -24 62 -54c0 -21.333 -7.16699 -39.833 -21.5 -55.5s-32.166 -23.5 -53.499 -23.5h-408c-20.667 0 -38 7.5 -52 22.5s-21 32.833 -21 53.5c0 29.333 13.333 47.333 40 54c6.66699 1.33301 32 2 76 2zM508.999 741l464 -13.999
c38 0.666992 93.667 -2.33301 167 -9c47.333 -8.66699 71 -33.334 71 -74.001c0 -50 -26.333 -75 -79 -75l-204 11c-141.333 7.33301 -281 11 -419 11c-30 0 -75.333 -1 -136 -3s-106 -3 -136 -3c-50 0 -75 25 -75 75s25 75 75 75c30 0 75.333 1 136 3s106 3 136 3z
M550.999 -204.999l84.001 -2.00195l84 -2c22 0 54.5 3.33301 97.5 10s74.833 10 95.5 10s37.834 -7.66699 51.501 -23s20.5 -33.333 20.5 -54c0 -61.333 -89.333 -92 -268 -92c-22 0 -55.333 0.666992 -100 2s-78.334 2 -101.001 2c-35.333 0 -65.333 7.66699 -90 23
c-29.333 18.667 -44 44.667 -44 78c0 88 35.333 163.333 106 226l196 133c70.667 46.667 106 94.667 106 144c0 19.333 -12.667 41 -38 65s-48 36 -68 36c-46 0 -82 -13.667 -108 -41l-48 -77c-16.667 -28 -37.667 -42 -63 -42c-21.333 0 -39.5 6.83301 -54.5 20.5
s-22.5 30.834 -22.5 51.501c0 64 34.333 118.667 103 164c61.333 40 127 60 197 60c62.667 0 120.167 -24.5 172.5 -73.5s78.5 -103.5 78.5 -163.5c0 -86 -23.333 -155 -70 -207c-24.667 -28 -76.667 -66.333 -156 -115c-74.667 -45.333 -128.334 -89.666 -161.001 -132.999
z" />
    <glyph glyph-name="threequarters" unicode="&#xbe;" horiz-adv-x="1333" 
d="M852 1314c63.333 -46 94.999 -122.998 94.999 -230.998c0 -76 -37.333 -135 -112 -177c-61.333 -34 -133.666 -51 -216.999 -51c-136 0 -204 32.333 -204 97c0 20.667 7.33301 38.834 22 54.501s32 23.5 52 23.5c6.66699 0 24.667 -4.16699 54 -12.5
s54.666 -12.5 75.999 -12.5c36 0 71.333 5 106 15c49.333 15.333 74 36.333 74 63c0 67.333 -21.333 109.333 -64 126l-118 14c-42.667 6 -64 29.333 -64 70c0 37.333 34.833 65.166 104.5 83.499s104.5 48.166 104.5 89.499c0 56.667 -51 85 -153 85
c-9.33301 0 -23.333 -2.83301 -42 -8.5s-33 -8.5 -43 -8.5c-42 0 -63 19.667 -63 59c0 34.667 16.667 62 50 82c28.667 17.333 61.334 26 98.001 26c82 0 150.667 -18 206 -54c64 -42.667 96 -103 96 -181c0 -60.667 -19.333 -111.334 -58 -152.001zM508.999 741.002
c133.333 0 288.001 -4.66699 464.001 -14c38 -0.666992 93.667 -3.66699 167 -9c47.333 -5.33301 71 -30 71 -74c0 -50 -26.333 -75 -79 -75l-204 11c-154.667 7.33301 -294.334 11 -419.001 11c-30 0 -75.333 -1 -136 -3s-106 -3 -136 -3c-50 0 -75 25 -75 75s25 75 75 75
c30 0 75.333 1 136 3s106 3 136 3zM673 18.002l2.00098 225c-78.667 -91.333 -145.334 -166 -200.001 -224c20 2 44 3 72 3zM813.001 306.002l4 -291.001l48 1c90.667 0.666992 136 -23.666 136 -72.999c0 -32 -21.667 -48 -65 -48c-14.667 0 -34.334 1.33301 -59.001 4
c-29.333 4 -48.666 6.33301 -57.999 7l2 -173c0 -50 -25 -75 -75 -75s-75 25 -75 75l1 171l-323 -16c-52.667 0 -79 25.667 -79 77c0 34 14.333 64.333 43 91c54 49.333 114.667 115.333 182 198l171 208c22.667 26.667 54 40 94 40c20 0 38 -7 54 -21s24 -31.333 24 -52
c0 -10 -4.16699 -28.5 -12.5 -55.5s-12.5 -49.5 -12.5 -67.5z" />
    <glyph glyph-name="questiondown" unicode="&#xbf;" horiz-adv-x="1073" 
d="M642 1097c27.333 0 51.333 -10.333 72 -31s31 -44.667 31 -72c0 -45.333 -42.667 -101.666 -128 -168.999l-239 -181c-86 -74 -129 -141.667 -129 -203c0 -77.333 36.333 -148.666 109 -213.999c70 -63.333 144.333 -95 223 -95c42 0 95.333 21.5 160 64.5
s104.667 64.5 120 64.5c27.333 0 50.833 -11 70.5 -33s29.5 -46.667 29.5 -74c0 -52.667 -51 -105 -153 -157c-91.333 -46 -167 -69 -227 -69c-134 0 -255.667 52.167 -365 156.5s-164 223.166 -164 356.499c0 97.333 31.333 183.666 94 258.999
c37.333 45.333 106.833 104.5 208.5 177.5s172.5 132.5 212.5 178.5c23.333 27.333 48.333 41 75 41zM697 1478c29.333 0 55.834 -9.83301 79.501 -29.5s35.5 -43.834 35.5 -72.501c0 -41.333 -11 -78.666 -33 -111.999c-24.667 -37.333 -56.334 -56 -95.001 -56
c-64 0 -96 39.333 -96 118c0 36.667 8.66699 70 26 100c21.333 34.667 49 52 83 52z" />
    <glyph glyph-name="Agrave" unicode="&#xc0;" horiz-adv-x="1498" 
d="M1250 -30c-61.333 0 -114.666 78.667 -159.999 236c-17.333 60 -39 165 -65 315c-68 -9.33301 -157 -26 -267 -50l-266 -55c-33.333 -87.333 -90.333 -215 -171 -383c-21.333 -37.333 -50.333 -56 -87 -56c-26.667 0 -50.5 9.66699 -71.5 29s-31.5 43.333 -31.5 72
c0 32 50.333 153.667 151 365c-11.333 17.333 -17 37.333 -17 60c0 54 32.667 88.667 98 104c76 142.667 172 306.667 288 492c158 252.667 256.333 379 295 379c52.667 0 88.667 -36.667 108 -110l63 -336l149 -695l57 -158c19.333 -54 29 -90 29 -108
c0 -28.667 -10.333 -52.667 -31 -72s-44.334 -29 -71.001 -29zM897 1113l-286 -461c80.667 20.667 203 45.667 367 75zM1099 1727c0 -24 -9.5 -44.834 -28.5 -62.501s-40.5 -26.5 -64.5 -26.5c-28.667 0 -52.667 14 -72 42l-100 149
c-35.333 48.667 -76.666 91.334 -123.999 128.001c-26 20 -39 43.667 -39 71c0 24 8.83301 45.5 26.5 64.5s38.5 28.5 62.5 28.5c41.333 0 108.666 -55.333 201.999 -166c91.333 -109.333 137 -185.333 137 -228z" />
    <glyph glyph-name="Aacute" unicode="&#xc1;" horiz-adv-x="1498" 
d="M1250 -30c-61.333 0 -114.666 78.667 -159.999 236c-17.333 60 -39 165 -65 315c-68 -9.33301 -157 -26 -267 -50l-266 -55c-33.333 -87.333 -90.333 -215 -171 -383c-21.333 -37.333 -50.333 -56 -87 -56c-26.667 0 -50.5 9.66699 -71.5 29s-31.5 43.333 -31.5 72
c0 32 50.333 153.667 151 365c-11.333 17.333 -17 37.333 -17 60c0 54 32.667 88.667 98 104c76 142.667 172 306.667 288 492c158 252.667 256.333 379 295 379c52.667 0 88.667 -36.667 108 -110l63 -336l149 -695l57 -158c19.333 -54 29 -90 29 -108
c0 -28.667 -10.333 -52.667 -31 -72s-44.334 -29 -71.001 -29zM897 1113l-286 -461c80.667 20.667 203 45.667 367 75zM931 1630c-24 0 -45.167 9.33105 -63.5 27.998s-27.5 40 -27.5 64c0 22.667 10.333 44.334 31 65.001c28.667 28 72.334 81 131.001 159
c44 57.333 93 105 147 143c18 12.667 35.667 19 53 19c24 0 45 -9.5 63 -28.5s27 -40.5 27 -64.5c0 -26.667 -12.667 -50 -38 -70c-46.667 -37.333 -91.667 -85.666 -135 -144.999c-45.333 -62.667 -88.333 -111 -129 -145c-18.667 -16.667 -38.334 -25 -59.001 -25z" />
    <glyph glyph-name="Acircumflex" unicode="&#xc2;" horiz-adv-x="1498" 
d="M1250 -30c-61.333 0 -114.666 78.667 -159.999 236c-17.333 60 -39 165 -65 315c-68 -9.33301 -157 -26 -267 -50l-266 -55c-33.333 -87.333 -90.333 -215 -171 -383c-21.333 -37.333 -50.333 -56 -87 -56c-26.667 0 -50.5 9.66699 -71.5 29s-31.5 43.333 -31.5 72
c0 32 50.333 153.667 151 365c-11.333 17.333 -17 37.333 -17 60c0 54 32.667 88.667 98 104c76 142.667 172 306.667 288 492c158 252.667 256.333 379 295 379c52.667 0 88.667 -36.667 108 -110l63 -336l149 -695l57 -158c19.333 -54 29 -90 29 -108
c0 -28.667 -10.333 -52.667 -31 -72s-44.334 -29 -71.001 -29zM897 1113l-286 -461c80.667 20.667 203 45.667 367 75zM913 2090c36.667 0 80.666 -22.333 131.999 -67c16 -14 52.333 -51.333 109 -112l159 -170c17.333 -20 26 -40.333 26 -61
c0 -24 -9.16699 -45.167 -27.5 -63.5s-39.833 -27.5 -64.5 -27.5c-22 0 -43 9.66699 -63 29c-53.333 60 -136.666 146.667 -249.999 260c-169.333 -208 -278 -312 -326 -312c-24 0 -45.167 9.33301 -63.5 28s-27.5 40 -27.5 64c0 23.333 10 45 30 65
c37.333 36 139 148 305 336c18 20.667 38.333 31 61 31z" />
    <glyph glyph-name="Atilde" unicode="&#xc3;" horiz-adv-x="1498" 
d="M1250 -30c-61.333 0 -114.666 78.667 -159.999 236c-17.333 60 -39 165 -65 315c-68 -9.33301 -157 -26 -267 -50l-266 -55c-33.333 -87.333 -90.333 -215 -171 -383c-21.333 -37.333 -50.333 -56 -87 -56c-26.667 0 -50.5 9.66699 -71.5 29s-31.5 43.333 -31.5 72
c0 32 50.333 153.667 151 365c-11.333 17.333 -17 37.333 -17 60c0 54 32.667 88.667 98 104c76 142.667 172 306.667 288 492c158 252.667 256.333 379 295 379c52.667 0 88.667 -36.667 108 -110l63 -336l149 -695l57 -158c19.333 -54 29 -90 29 -108
c0 -28.667 -10.333 -52.667 -31 -72s-44.334 -29 -71.001 -29zM897 1113l-286 -461c80.667 20.667 203 45.667 367 75zM805 2005c66.667 0 120.333 -19.334 161 -58.001l83 -106c31.333 -38.667 68.666 -58 111.999 -58c38 0 66.333 12.333 85 37l46 88l20 59
c9.33301 19.333 29.333 29 60 29c50 0 75 -24.667 75 -74c0 -24 -14.333 -64.333 -43 -121c-26.667 -53.333 -49.667 -90 -69 -110c-37.333 -38 -85 -57 -143 -57c-87.333 0 -155.666 19 -204.999 57c-18 14 -47.333 49.667 -88 107c-28 38 -59.333 57 -94 57
c-20.667 0 -39.167 -3.83301 -55.5 -11.5s-30.5 -19.167 -42.5 -34.5l-44 -85c-16.667 -30 -38.334 -45 -65.001 -45c-20.667 0 -38.667 6.83301 -54 20.5s-23 30.834 -23 51.501c0 7.33301 1 15 3 23c18.667 68 52.334 123 101.001 165c52 44 112 66 180 66z" />
    <glyph glyph-name="Adieresis" unicode="&#xc4;" horiz-adv-x="1498" 
d="M1250 -30c-61.333 0 -114.666 78.667 -159.999 236c-17.333 60 -39 165 -65 315c-68 -9.33301 -157 -26 -267 -50l-266 -55c-33.333 -87.333 -90.333 -215 -171 -383c-21.333 -37.333 -50.333 -56 -87 -56c-26.667 0 -50.5 9.66699 -71.5 29s-31.5 43.333 -31.5 72
c0 32 50.333 153.667 151 365c-11.333 17.333 -17 37.333 -17 60c0 54 32.667 88.667 98 104c76 142.667 172 306.667 288 492c158 252.667 256.333 379 295 379c52.667 0 88.667 -36.667 108 -110l63 -336l149 -695l57 -158c19.333 -54 29 -90 29 -108
c0 -28.667 -10.333 -52.667 -31 -72s-44.334 -29 -71.001 -29zM897 1113l-286 -461c80.667 20.667 203 45.667 367 75zM702 1822c87.333 0 131 -35 131 -105c0 -20 -14.667 -39.333 -44 -58c-26.667 -16.667 -51.667 -25 -75 -25c-82 0 -123 34.333 -123 103
c0 19.333 12.5 38.333 37.5 57s49.5 28 73.5 28zM1241 1830c22.667 0 45.666 -10.5 68.999 -31.5s35 -41.5 35 -61.5c0 -61.333 -47.667 -92 -143 -92c-27.333 0 -51.666 7 -72.999 21c-24 16 -36 37 -36 63c0 46 15 75.667 45 89c16.667 8 51 12 103 12z" />
    <glyph glyph-name="Aring" unicode="&#xc5;" horiz-adv-x="1498" 
d="M1250 -30c-61.333 0 -114.666 78.667 -159.999 236c-17.333 60 -39 165 -65 315c-68 -9.33301 -157 -26 -267 -50l-266 -55c-33.333 -87.333 -90.333 -215 -171 -383c-21.333 -37.333 -50.333 -56 -87 -56c-26.667 0 -50.5 9.66699 -71.5 29s-31.5 43.333 -31.5 72
c0 32 50.333 153.667 151 365c-11.333 17.333 -17 37.333 -17 60c0 54 32.667 88.667 98 104c76 142.667 172 306.667 288 492c158 252.667 256.333 379 295 379c52.667 0 88.667 -36.667 108 -110l63 -336l149 -695l57 -158c19.333 -54 29 -90 29 -108
c0 -28.667 -10.333 -52.667 -31 -72s-44.334 -29 -71.001 -29zM897 1113l-286 -461c80.667 20.667 203 45.667 367 75zM965 1576c57.333 2 99.333 10 126 24c44.667 24 67 68 67 132c0 38.667 -18 69 -54 91c-30 19.333 -65.667 29 -107 29
c-144.667 0 -215.667 -53.333 -213 -160c0.666992 -30.667 21 -58 61 -82s80 -35.333 120 -34zM634 1692c0 96.667 34.334 173.001 103.001 229.001c66 53.333 152.667 80 260 80c83.333 0 154.666 -23.333 213.999 -70c64.667 -51.333 97 -117.666 97 -198.999
c0 -98.667 -29.833 -173.334 -89.5 -224.001s-149.167 -77 -268.5 -79c-90.667 -1.33301 -166 24 -226 76c-60 51.333 -90 113.666 -90 186.999z" />
    <glyph glyph-name="AE" unicode="&#xc6;" horiz-adv-x="2226" 
d="M1152 672c-70.667 -2 -161.33 -8.33301 -271.997 -19l-272 -25c-58 -79.333 -143.667 -207.666 -257 -384.999l-121 -185c-22 -30.667 -48.667 -46 -80 -46c-26.667 0 -50.667 9.83301 -72 29.5s-32 42.834 -32 69.501c0 18 6.33301 37 19 57
c207.333 338.667 387 596.667 539 774l272 346c120 146 225.333 240 316 282c22.667 10.667 46 16 70 16c28 0 52 -9.66699 72 -29c80 21.333 155.5 37.333 226.5 48s137.833 16 200.5 16c174.667 0 304 -19.333 388 -58c44.667 -20.667 67 -52.667 67 -96
c0 -28 -9.5 -52.5 -28.5 -73.5s-42.167 -31.5 -69.5 -31.5c-8 0 -18.333 1.66699 -31 5c-124.667 32 -233.334 48 -326.001 48c-54.667 0 -114.334 -5 -179.001 -15s-134.334 -25.333 -209.001 -46c6 -42 9 -76.667 9 -104c0 -93.333 -5.66699 -220.666 -17 -381.999l438 42
c124 13.333 203 20 237 20c30 0 54.667 -9.83301 74 -29.5s29 -44.5 29 -74.5c0 -56 -30.333 -90 -91 -102l-238 -20l-462 -43c-6 -94.667 -9 -178.667 -9 -252c0 -150.667 10.667 -237.334 32 -260.001c18 -18.667 70.333 -28 157 -28c41.333 0 103.5 1.16699 186.5 3.5
s145.5 3.5 187.5 3.5c12.667 0 32 2 58 6s45.667 6 59 6c70.667 0 106 -34.333 106 -103c0 -52.667 -28.333 -86.334 -85 -101.001s-128.667 -22.334 -216 -23.001l-218 2c-194 0 -321 32.333 -381 97c-57.333 62 -86 194.333 -86 397c0 76 3 163.667 9 263zM781.004 844
c163.333 16 291.333 25.001 384 27.001c11.333 161.333 17 287.666 17 378.999c0 20 -1.66699 42.667 -5 68c-61.333 -56 -130 -132.667 -206 -230z" />
    <glyph glyph-name="Ccedilla" unicode="&#xc7;" horiz-adv-x="1234" 
d="M792 -142c0 -110 -46.6641 -184.998 -139.997 -224.998c-62 -26.667 -156.333 -40 -283 -40c-86.667 0 -130 26 -130 78c0 50 24.333 75 73 75c12 0 30.667 -0.666992 56 -2s44.333 -2 57 -2c144.667 0 217 38.667 217 116c0 45.333 -35.333 81.666 -106 108.999l-161 56
c-94.667 55.333 -165.834 122.666 -213.501 201.999s-71.5 170.666 -71.5 273.999c0 224.667 94.667 456.334 284 695.001c157.333 198 316.666 297 477.999 297c32 0 61.167 -1.5 87.5 -4.5s49.5 -7.83301 69.5 -14.5c23.333 34 53.666 51 90.999 51
c47.333 0 78.333 -38.667 93 -116c6.66699 -34 10 -92 10 -174c0 -30.667 -8.66699 -56.334 -26 -77.001c-18.667 -22.667 -43 -34 -73 -34c-42 0 -74 25 -96 75c-20 44 -38.667 70.333 -56 79c-12.667 6.66699 -46 10 -100 10c-96.667 0 -204 -74 -322 -222
c-160 -199.333 -240 -387.666 -240 -564.999c0 -83.333 27 -156.333 81 -219c56 -66 125 -99 207 -99c68 0 137.667 18.333 209 55c36 18.667 88.667 52.667 158 102c51.333 37.333 86 56 104 56c27.333 0 51 -10.667 71 -32s30 -45.666 30 -72.999
c0 -51.333 -56 -111 -168 -179c-92.667 -56 -174 -93.333 -244 -112c36 -44.667 54 -91.334 54 -140.001z" />
    <glyph glyph-name="Egrave" unicode="&#xc8;" horiz-adv-x="1279" 
d="M1115 1346c-9.33301 0 -19.6611 1.66406 -30.9941 4.99707c-112.667 32 -221.334 48 -326.001 48c-54.667 0 -114.334 -5 -179.001 -15s-134.334 -25.333 -209.001 -46c6 -43.333 9 -78 9 -104c0 -92.667 -5.66699 -220 -17 -382l438 42
c128.667 13.333 207.667 20 237 20s54 -9.33301 74 -28s30 -43.667 30 -75c0 -60.667 -30.667 -94.667 -92 -102l-238 -21l-462 -42c-2.66699 -47.333 -4.83398 -92.166 -6.50098 -134.499s-2.5 -81.833 -2.5 -118.5c0 -147.333 10.667 -234 32 -260
c16 -18.667 68.333 -28 157 -28c41.333 0 103.5 1.16699 186.5 3.5s145.5 3.5 187.5 3.5c13.333 0 33 2.16699 59 6.5s45.333 6.5 58 6.5c70.667 0 106 -34.667 106 -104c0 -56 -28.333 -89.667 -85 -101c-62.667 -12.667 -198.334 -19 -407.001 -19
c-206.667 0 -339.334 27.333 -398.001 82c-64 59.333 -96 196 -96 410c0 42.667 1 89.334 3 140.001s4.66699 105.334 8 164.001c-7.33301 15.333 -11 31.666 -11 48.999c0 22.667 6.33301 43 19 61c13.333 192.667 20 335 20 427c0 24.667 -3.33301 60.834 -10 108.501
s-10 83.834 -10 108.501c0 79.333 33.333 119 100 119c28 0 52 -9.66699 72 -29c80 21.333 155.5 37.333 226.5 48s137.833 16 200.5 16c162 0 291.333 -19.333 388 -58c44.667 -18 67 -50 67 -96c0 -26.667 -8.66699 -50.334 -26 -71.001
c-19.333 -22.667 -43.333 -34 -72 -34zM955.005 1836c0 -24 -9.5 -44.834 -28.5 -62.501s-40.5 -26.5 -64.5 -26.5c-28.667 0 -52.667 14 -72 42l-100 149c-35.333 48.667 -76.666 91.334 -123.999 128.001c-26 20 -39 43.667 -39 71c0 24 8.83301 45.5 26.5 64.5
s38.5 28.5 62.5 28.5c41.333 0 108.666 -55.333 201.999 -166c91.333 -109.333 137 -185.333 137 -228z" />
    <glyph glyph-name="Eacute" unicode="&#xc9;" horiz-adv-x="1279" 
d="M1115 1346c-9.33301 0 -19.6611 1.66406 -30.9941 4.99707c-112.667 32 -221.334 48 -326.001 48c-54.667 0 -114.334 -5 -179.001 -15s-134.334 -25.333 -209.001 -46c6 -43.333 9 -78 9 -104c0 -92.667 -5.66699 -220 -17 -382l438 42
c128.667 13.333 207.667 20 237 20s54 -9.33301 74 -28s30 -43.667 30 -75c0 -60.667 -30.667 -94.667 -92 -102l-238 -21l-462 -42c-2.66699 -47.333 -4.83398 -92.166 -6.50098 -134.499s-2.5 -81.833 -2.5 -118.5c0 -147.333 10.667 -234 32 -260
c16 -18.667 68.333 -28 157 -28c41.333 0 103.5 1.16699 186.5 3.5s145.5 3.5 187.5 3.5c13.333 0 33 2.16699 59 6.5s45.333 6.5 58 6.5c70.667 0 106 -34.667 106 -104c0 -56 -28.333 -89.667 -85 -101c-62.667 -12.667 -198.334 -19 -407.001 -19
c-206.667 0 -339.334 27.333 -398.001 82c-64 59.333 -96 196 -96 410c0 42.667 1 89.334 3 140.001s4.66699 105.334 8 164.001c-7.33301 15.333 -11 31.666 -11 48.999c0 22.667 6.33301 43 19 61c13.333 192.667 20 335 20 427c0 24.667 -3.33301 60.834 -10 108.501
s-10 83.834 -10 108.501c0 79.333 33.333 119 100 119c28 0 52 -9.66699 72 -29c80 21.333 155.5 37.333 226.5 48s137.833 16 200.5 16c162 0 291.333 -19.333 388 -58c44.667 -18 67 -50 67 -96c0 -26.667 -8.66699 -50.334 -26 -71.001
c-19.333 -22.667 -43.333 -34 -72 -34zM747.005 1764c-24 0 -45.167 9.33105 -63.5 27.998s-27.5 40 -27.5 64c0 22.667 10.333 44.334 31 65.001c28.667 28 72.334 81 131.001 159c44 57.333 93 105 147 143c18 12.667 35.667 19 53 19c24 0 45 -9.5 63 -28.5
s27 -40.5 27 -64.5c0 -26.667 -12.667 -50 -38 -70c-46.667 -37.333 -91.667 -85.666 -135 -144.999c-45.333 -62.667 -88.333 -111 -129 -145c-18.667 -16.667 -38.334 -25 -59.001 -25z" />
    <glyph glyph-name="Ecircumflex" unicode="&#xca;" horiz-adv-x="1279" 
d="M1115 1346c-9.33301 0 -19.6611 1.66406 -30.9941 4.99707c-112.667 32 -221.334 48 -326.001 48c-54.667 0 -114.334 -5 -179.001 -15s-134.334 -25.333 -209.001 -46c6 -43.333 9 -78 9 -104c0 -92.667 -5.66699 -220 -17 -382l438 42
c128.667 13.333 207.667 20 237 20s54 -9.33301 74 -28s30 -43.667 30 -75c0 -60.667 -30.667 -94.667 -92 -102l-238 -21l-462 -42c-2.66699 -47.333 -4.83398 -92.166 -6.50098 -134.499s-2.5 -81.833 -2.5 -118.5c0 -147.333 10.667 -234 32 -260
c16 -18.667 68.333 -28 157 -28c41.333 0 103.5 1.16699 186.5 3.5s145.5 3.5 187.5 3.5c13.333 0 33 2.16699 59 6.5s45.333 6.5 58 6.5c70.667 0 106 -34.667 106 -104c0 -56 -28.333 -89.667 -85 -101c-62.667 -12.667 -198.334 -19 -407.001 -19
c-206.667 0 -339.334 27.333 -398.001 82c-64 59.333 -96 196 -96 410c0 42.667 1 89.334 3 140.001s4.66699 105.334 8 164.001c-7.33301 15.333 -11 31.666 -11 48.999c0 22.667 6.33301 43 19 61c13.333 192.667 20 335 20 427c0 24.667 -3.33301 60.834 -10 108.501
s-10 83.834 -10 108.501c0 79.333 33.333 119 100 119c28 0 52 -9.66699 72 -29c80 21.333 155.5 37.333 226.5 48s137.833 16 200.5 16c162 0 291.333 -19.333 388 -58c44.667 -18 67 -50 67 -96c0 -26.667 -8.66699 -50.334 -26 -71.001
c-19.333 -22.667 -43.333 -34 -72 -34zM751.005 2257c36.667 0 80.666 -22.333 131.999 -67c16 -14 52.333 -51.333 109 -112l159 -170c17.333 -20 26 -40.333 26 -61c0 -24 -9.16699 -45.167 -27.5 -63.5s-39.833 -27.5 -64.5 -27.5c-22 0 -43 9.66699 -63 29
c-53.333 60 -136.666 146.667 -249.999 260c-169.333 -208 -278 -312 -326 -312c-24 0 -45.167 9.33301 -63.5 28s-27.5 40 -27.5 64c0 23.333 10 45 30 65c37.333 36 139 148 305 336c18 20.667 38.333 31 61 31z" />
    <glyph glyph-name="Edieresis" unicode="&#xcb;" horiz-adv-x="1279" 
d="M1115 1346c-9.33301 0 -19.6611 1.66406 -30.9941 4.99707c-112.667 32 -221.334 48 -326.001 48c-54.667 0 -114.334 -5 -179.001 -15s-134.334 -25.333 -209.001 -46c6 -43.333 9 -78 9 -104c0 -92.667 -5.66699 -220 -17 -382l438 42
c128.667 13.333 207.667 20 237 20s54 -9.33301 74 -28s30 -43.667 30 -75c0 -60.667 -30.667 -94.667 -92 -102l-238 -21l-462 -42c-2.66699 -47.333 -4.83398 -92.166 -6.50098 -134.499s-2.5 -81.833 -2.5 -118.5c0 -147.333 10.667 -234 32 -260
c16 -18.667 68.333 -28 157 -28c41.333 0 103.5 1.16699 186.5 3.5s145.5 3.5 187.5 3.5c13.333 0 33 2.16699 59 6.5s45.333 6.5 58 6.5c70.667 0 106 -34.667 106 -104c0 -56 -28.333 -89.667 -85 -101c-62.667 -12.667 -198.334 -19 -407.001 -19
c-206.667 0 -339.334 27.333 -398.001 82c-64 59.333 -96 196 -96 410c0 42.667 1 89.334 3 140.001s4.66699 105.334 8 164.001c-7.33301 15.333 -11 31.666 -11 48.999c0 22.667 6.33301 43 19 61c13.333 192.667 20 335 20 427c0 24.667 -3.33301 60.834 -10 108.501
s-10 83.834 -10 108.501c0 79.333 33.333 119 100 119c28 0 52 -9.66699 72 -29c80 21.333 155.5 37.333 226.5 48s137.833 16 200.5 16c162 0 291.333 -19.333 388 -58c44.667 -18 67 -50 67 -96c0 -26.667 -8.66699 -50.334 -26 -71.001
c-19.333 -22.667 -43.333 -34 -72 -34zM522.005 1940c87.333 0 131 -35 131 -105c0 -20 -14.667 -39.333 -44 -58c-26.667 -16.667 -51.667 -25 -75 -25c-82 0 -123 34.333 -123 103c0 19.333 12.5 38.333 37.5 57s49.5 28 73.5 28zM1061 1948
c22.667 0 45.666 -10.5 68.999 -31.5s35 -41.5 35 -61.5c0 -61.333 -47.667 -92 -143 -92c-27.333 0 -51.666 7 -72.999 21c-24 16 -36 37 -36 63c0 46 15 75.667 45 89c16.667 8 51 12 103 12z" />
    <glyph glyph-name="Igrave" unicode="&#xcc;" horiz-adv-x="1119" 
d="M957 1246c-42.667 0 -96.332 4.33691 -160.999 13.0039l-161 21c-15.333 -194 -23 -379.333 -23 -556c0 -46.667 1.33301 -104.334 4 -173.001s4 -126.334 4 -173.001c0 -62.667 -2.33301 -119.667 -7 -171l315 4c28 0 51.5 -9.83301 70.5 -29.5
s28.5 -43.834 28.5 -72.501c0 -29.333 -9.5 -53.833 -28.5 -73.5s-42.5 -29.5 -70.5 -29.5c-37.333 0 -93.333 -0.833008 -168 -2.5s-130.667 -2.5 -168 -2.5c-44 0 -109.833 -6.16699 -197.5 -18.5s-153.834 -18.5 -198.501 -18.5c-28 0 -51.5 9.83301 -70.5 29.5
s-28.5 43.834 -28.5 72.501s9.5 53 28.5 73s42.5 30 70.5 30c43.333 0 115 7 215 21c6.66699 54 10 115.667 10 185c0 46 -2.16699 102.167 -6.5 168.5s-6.5 122.166 -6.5 167.499c0 154 9.33301 346.333 28 577l-130 -4l-130 -3c-28.667 0 -52.667 9.66699 -72 29
s-29 44 -29 74c0 62 31.333 96 94 102c54 5.33301 155 8 303 8c132.667 0 299 -14.333 499 -43c59.333 -8.66699 89 -44.334 89 -107.001c0 -31.333 -11.333 -56.333 -34 -75c-20 -15.333 -43 -23 -69 -23zM754.002 1767c0 -24 -9.5 -44.834 -28.5 -62.501
s-40.5 -26.5 -64.5 -26.5c-28.667 0 -52.667 14 -72 42l-100 149c-35.333 48.667 -76.666 91.334 -123.999 128.001c-26 20 -39 43.667 -39 71c0 24 8.83301 45.5 26.5 64.5s38.5 28.5 62.5 28.5c41.333 0 108.666 -55.333 201.999 -166
c91.333 -109.333 137 -185.333 137 -228z" />
    <glyph glyph-name="Iacute" unicode="&#xcd;" horiz-adv-x="1119" 
d="M957 1246c-42.667 0 -96.332 4.33691 -160.999 13.0039l-161 21c-15.333 -194 -23 -379.333 -23 -556c0 -46.667 1.33301 -104.334 4 -173.001s4 -126.334 4 -173.001c0 -62.667 -2.33301 -119.667 -7 -171l315 4c28 0 51.5 -9.83301 70.5 -29.5
s28.5 -43.834 28.5 -72.501c0 -29.333 -9.5 -53.833 -28.5 -73.5s-42.5 -29.5 -70.5 -29.5c-37.333 0 -93.333 -0.833008 -168 -2.5s-130.667 -2.5 -168 -2.5c-44 0 -109.833 -6.16699 -197.5 -18.5s-153.834 -18.5 -198.501 -18.5c-28 0 -51.5 9.83301 -70.5 29.5
s-28.5 43.834 -28.5 72.501s9.5 53 28.5 73s42.5 30 70.5 30c43.333 0 115 7 215 21c6.66699 54 10 115.667 10 185c0 46 -2.16699 102.167 -6.5 168.5s-6.5 122.166 -6.5 167.499c0 154 9.33301 346.333 28 577l-130 -4l-130 -3c-28.667 0 -52.667 9.66699 -72 29
s-29 44 -29 74c0 62 31.333 96 94 102c54 5.33301 155 8 303 8c132.667 0 299 -14.333 499 -43c59.333 -8.66699 89 -44.334 89 -107.001c0 -31.333 -11.333 -56.333 -34 -75c-20 -15.333 -43 -23 -69 -23zM524.002 1657c-24 0 -45.167 9.33105 -63.5 27.998
s-27.5 40 -27.5 64c0 22.667 10.333 44.334 31 65.001c28.667 28 72.334 81 131.001 159c44 57.333 93 105 147 143c18 12.667 35.667 19 53 19c24 0 45 -9.5 63 -28.5s27 -40.5 27 -64.5c0 -26.667 -12.667 -50 -38 -70c-46.667 -37.333 -91.667 -85.666 -135 -144.999
c-45.333 -62.667 -88.333 -111 -129 -145c-18.667 -16.667 -38.334 -25 -59.001 -25z" />
    <glyph glyph-name="Icircumflex" unicode="&#xce;" horiz-adv-x="1119" 
d="M957 1246c-42.667 0 -96.332 4.33691 -160.999 13.0039l-161 21c-15.333 -194 -23 -379.333 -23 -556c0 -46.667 1.33301 -104.334 4 -173.001s4 -126.334 4 -173.001c0 -62.667 -2.33301 -119.667 -7 -171l315 4c28 0 51.5 -9.83301 70.5 -29.5
s28.5 -43.834 28.5 -72.501c0 -29.333 -9.5 -53.833 -28.5 -73.5s-42.5 -29.5 -70.5 -29.5c-37.333 0 -93.333 -0.833008 -168 -2.5s-130.667 -2.5 -168 -2.5c-44 0 -109.833 -6.16699 -197.5 -18.5s-153.834 -18.5 -198.501 -18.5c-28 0 -51.5 9.83301 -70.5 29.5
s-28.5 43.834 -28.5 72.501s9.5 53 28.5 73s42.5 30 70.5 30c43.333 0 115 7 215 21c6.66699 54 10 115.667 10 185c0 46 -2.16699 102.167 -6.5 168.5s-6.5 122.166 -6.5 167.499c0 154 9.33301 346.333 28 577l-130 -4l-130 -3c-28.667 0 -52.667 9.66699 -72 29
s-29 44 -29 74c0 62 31.333 96 94 102c54 5.33301 155 8 303 8c132.667 0 299 -14.333 499 -43c59.333 -8.66699 89 -44.334 89 -107.001c0 -31.333 -11.333 -56.333 -34 -75c-20 -15.333 -43 -23 -69 -23zM574.002 2177c36.667 0 80.666 -22.333 131.999 -67
c16 -14 52.333 -51.333 109 -112l159 -170c17.333 -20 26 -40.333 26 -61c0 -24 -9.16699 -45.167 -27.5 -63.5s-39.833 -27.5 -64.5 -27.5c-22 0 -43 9.66699 -63 29c-53.333 60 -136.666 146.667 -249.999 260c-169.333 -208 -278 -312 -326 -312
c-24 0 -45.167 9.33301 -63.5 28s-27.5 40 -27.5 64c0 23.333 10 45 30 65c37.333 36 139 148 305 336c18 20.667 38.333 31 61 31z" />
    <glyph glyph-name="Idieresis" unicode="&#xcf;" horiz-adv-x="1119" 
d="M957 1246c-42.667 0 -96.332 4.33691 -160.999 13.0039l-161 21c-15.333 -194 -23 -379.333 -23 -556c0 -46.667 1.33301 -104.334 4 -173.001s4 -126.334 4 -173.001c0 -62.667 -2.33301 -119.667 -7 -171l315 4c28 0 51.5 -9.83301 70.5 -29.5
s28.5 -43.834 28.5 -72.501c0 -29.333 -9.5 -53.833 -28.5 -73.5s-42.5 -29.5 -70.5 -29.5c-37.333 0 -93.333 -0.833008 -168 -2.5s-130.667 -2.5 -168 -2.5c-44 0 -109.833 -6.16699 -197.5 -18.5s-153.834 -18.5 -198.501 -18.5c-28 0 -51.5 9.83301 -70.5 29.5
s-28.5 43.834 -28.5 72.501s9.5 53 28.5 73s42.5 30 70.5 30c43.333 0 115 7 215 21c6.66699 54 10 115.667 10 185c0 46 -2.16699 102.167 -6.5 168.5s-6.5 122.166 -6.5 167.499c0 154 9.33301 346.333 28 577l-130 -4l-130 -3c-28.667 0 -52.667 9.66699 -72 29
s-29 44 -29 74c0 62 31.333 96 94 102c54 5.33301 155 8 303 8c132.667 0 299 -14.333 499 -43c59.333 -8.66699 89 -44.334 89 -107.001c0 -31.333 -11.333 -56.333 -34 -75c-20 -15.333 -43 -23 -69 -23zM334.002 1842c87.333 0 131 -35 131 -105
c0 -20 -14.667 -39.333 -44 -58c-26.667 -16.667 -51.667 -25 -75 -25c-82 0 -123 34.333 -123 103c0 19.333 12.5 38.333 37.5 57s49.5 28 73.5 28zM873.002 1850c22.667 0 45.666 -10.5 68.999 -31.5s35 -41.5 35 -61.5c0 -61.333 -47.667 -92 -143 -92
c-27.333 0 -51.666 7 -72.999 21c-24 16 -36 37 -36 63c0 46 15 75.667 45 89c16.667 8 51 12 103 12z" />
    <glyph glyph-name="Eth" unicode="&#xd0;" horiz-adv-x="1478" 
d="M631 -99c-53.333 0 -111.997 8.33398 -175.997 25.001c-70.667 18 -124.334 40.667 -161.001 68h-10c-67.333 0 -101 34.333 -101 103c0 64.667 2.33301 147.667 7 249l10 249c-8.66699 0 -23.834 -0.5 -45.501 -1.5s-38.5 -1.5 -50.5 -1.5
c-98.667 0 -148 34.333 -148 103c0 68 49.667 102 149 102c12 0 29 -0.5 51 -1.5s37.333 -1.5 46 -1.5l-5 315l-4 316c0 28 14 56.833 42 86.5s56 44.5 84 44.5c16 0 69.333 -22 160 -66c105.333 -51.333 164.666 -79.333 177.999 -84c198 -72.667 361.333 -174 490 -304
c152.667 -154.667 229 -326.334 229 -515.001c0 -114 -26.667 -223 -80 -327c-54 -106 -127.333 -190.333 -220 -253c-104 -70.667 -252.333 -106 -445 -106zM395.003 1295l8.00195 -501c28.667 0 72.167 -2.83301 130.5 -8.5s102.166 -8.5 131.499 -8.5
s53.333 -9.16699 72 -27.5s28 -42.166 28 -71.499c0 -28.667 -9.33301 -52.334 -28 -71.001s-42.334 -28 -71.001 -28c-30 0 -74.333 2.66699 -133 8s-102.667 8 -132 8l-14 -421c88 -48 169 -72 243 -72c151.333 0 262 23.333 332 70c65.333 44 117 103.333 155 178
s57 152 57 232c0 126 -44.333 238.333 -133 337c-69.333 78 -171.333 151.667 -306 221c-36 19.333 -149.333 71 -340 155z" />
    <glyph glyph-name="Ntilde" unicode="&#xd1;" horiz-adv-x="1632" 
d="M1541 222c0 -32 -5.33105 -85.3301 -15.998 -159.997c-10.667 -67.333 -46.334 -101 -107.001 -101c-36.667 0 -80.334 24 -131.001 72c-271.333 256.667 -582.666 627 -933.999 1111l-5 -227l-3 -228c0 -55.333 1.16699 -138.333 3.5 -249s3.5 -194 3.5 -250
c0 -179.333 -34.667 -269 -104 -269c-36.667 0 -65.667 11.667 -87 35c-19.333 20.667 -29 45.334 -29 74.001c0 28 2.16699 70.333 6.5 127s6.5 99 6.5 127c0 41.333 1.33301 103.166 4 185.499s4 144.166 4 185.499c0 44 -1 110.5 -3 199.5s-3 155.5 -3 199.5
c0 42 -4 104.5 -12 187.5s-12 145.5 -12 187.5c0 30.667 13.167 58.667 39.5 84s56.166 38 89.499 38c35.333 0 79 -38.667 131 -116c166 -248.667 315.333 -455.334 448 -620.001c158 -195.333 331.333 -382 520 -560c2 28.667 2 71 0 127l-3 126
c0 292.667 -11.333 525.667 -34 699c-2.66699 17.333 -11.667 52.333 -27 105c-13.333 45.333 -20 80.666 -20 105.999c0 77.333 35.333 116 106 116c116 0 174 -216.333 174 -649c0 -74 -1 -184.5 -3 -331.5s-3 -257.5 -3 -331.5zM655.002 2024
c66.667 0 120.333 -19.334 161 -58.001l83 -106c31.333 -38.667 68.666 -58 111.999 -58c38 0 66.333 12.333 85 37l46 88l20 59c9.33301 19.333 29.333 29 60 29c50 0 75 -24.667 75 -74c0 -24 -14.333 -64.333 -43 -121c-26.667 -53.333 -49.667 -90 -69 -110
c-37.333 -38 -85 -57 -143 -57c-87.333 0 -155.666 19 -204.999 57c-18 14 -47.333 49.667 -88 107c-28 38 -59.333 57 -94 57c-20.667 0 -39.167 -3.83301 -55.5 -11.5s-30.5 -19.167 -42.5 -34.5l-44 -85c-16.667 -30 -38.334 -45 -65.001 -45
c-20.667 0 -38.667 6.83301 -54 20.5s-23 30.834 -23 51.501c0 7.33301 1 15 3 23c18.667 68 52.334 123 101.001 165c52 44 112 66 180 66z" />
    <glyph glyph-name="Ograve" unicode="&#xd2;" horiz-adv-x="1635" 
d="M802 -61c-188 0 -347.333 56.332 -478 168.999c-138.667 120 -208 274.667 -208 464c0 230.667 68.333 440.334 205 629.001c152.667 209.333 343 314 571 314c219.333 0 382.333 -49.333 489 -148c111.333 -102.667 167 -264.667 167 -486
c0 -230.667 -62.667 -438.667 -188 -624c-144 -212 -330 -318 -558 -318zM892 1310c-163.333 0 -301.667 -81.332 -415 -243.999c-104.667 -149.333 -157 -314 -157 -494c0 -128.667 47.667 -233.334 143 -314.001c91.333 -76 204.333 -114 339 -114
c162 0 295.667 81.667 401 245c94 146 141 310 141 492c0 159.333 -35.667 271.333 -107 336c-68 62 -183 93 -345 93zM1221 1737c0 -24 -9.5 -44.834 -28.5 -62.501s-40.5 -26.5 -64.5 -26.5c-28.667 0 -52.667 14 -72 42l-100 149
c-35.333 48.667 -76.666 91.334 -123.999 128.001c-26 20 -39 43.667 -39 71c0 24 8.83301 45.5 26.5 64.5s38.5 28.5 62.5 28.5c41.333 0 108.666 -55.333 201.999 -166c91.333 -109.333 137 -185.333 137 -228z" />
    <glyph glyph-name="Oacute" unicode="&#xd3;" horiz-adv-x="1635" 
d="M802 -61c-188 0 -347.333 56.332 -478 168.999c-138.667 120 -208 274.667 -208 464c0 230.667 68.333 440.334 205 629.001c152.667 209.333 343 314 571 314c219.333 0 382.333 -49.333 489 -148c111.333 -102.667 167 -264.667 167 -486
c0 -230.667 -62.667 -438.667 -188 -624c-144 -212 -330 -318 -558 -318zM892 1310c-163.333 0 -301.667 -81.332 -415 -243.999c-104.667 -149.333 -157 -314 -157 -494c0 -128.667 47.667 -233.334 143 -314.001c91.333 -76 204.333 -114 339 -114
c162 0 295.667 81.667 401 245c94 146 141 310 141 492c0 159.333 -35.667 271.333 -107 336c-68 62 -183 93 -345 93zM968.999 1637c-24 0 -45.167 9.33105 -63.5 27.998s-27.5 40 -27.5 64c0 22.667 10.333 44.334 31 65.001c28.667 28 72.334 81 131.001 159
c44 57.333 93 105 147 143c18 12.667 35.667 19 53 19c24 0 45 -9.5 63 -28.5s27 -40.5 27 -64.5c0 -26.667 -12.667 -50 -38 -70c-46.667 -37.333 -91.667 -85.666 -135 -144.999c-45.333 -62.667 -88.333 -111 -129 -145c-18.667 -16.667 -38.334 -25 -59.001 -25z" />
    <glyph glyph-name="Ocircumflex" unicode="&#xd4;" horiz-adv-x="1635" 
d="M802 -61c-188 0 -347.333 56.332 -478 168.999c-138.667 120 -208 274.667 -208 464c0 230.667 68.333 440.334 205 629.001c152.667 209.333 343 314 571 314c219.333 0 382.333 -49.333 489 -148c111.333 -102.667 167 -264.667 167 -486
c0 -230.667 -62.667 -438.667 -188 -624c-144 -212 -330 -318 -558 -318zM892 1310c-163.333 0 -301.667 -81.332 -415 -243.999c-104.667 -149.333 -157 -314 -157 -494c0 -128.667 47.667 -233.334 143 -314.001c91.333 -76 204.333 -114 339 -114
c162 0 295.667 81.667 401 245c94 146 141 310 141 492c0 159.333 -35.667 271.333 -107 336c-68 62 -183 93 -345 93zM979.999 2140c36.667 0 80.666 -22.333 131.999 -67c16 -14 52.333 -51.333 109 -112l159 -170c17.333 -20 26 -40.333 26 -61
c0 -24 -9.16699 -45.167 -27.5 -63.5s-39.833 -27.5 -64.5 -27.5c-22 0 -43 9.66699 -63 29c-53.333 60 -136.666 146.667 -249.999 260c-169.333 -208 -278 -312 -326 -312c-24 0 -45.167 9.33301 -63.5 28s-27.5 40 -27.5 64c0 23.333 10 45 30 65
c37.333 36 139 148 305 336c18 20.667 38.333 31 61 31z" />
    <glyph glyph-name="Otilde" unicode="&#xd5;" horiz-adv-x="1635" 
d="M802 -61c-188 0 -347.333 56.332 -478 168.999c-138.667 120 -208 274.667 -208 464c0 230.667 68.333 440.334 205 629.001c152.667 209.333 343 314 571 314c219.333 0 382.333 -49.333 489 -148c111.333 -102.667 167 -264.667 167 -486
c0 -230.667 -62.667 -438.667 -188 -624c-144 -212 -330 -318 -558 -318zM892 1310c-163.333 0 -301.667 -81.332 -415 -243.999c-104.667 -149.333 -157 -314 -157 -494c0 -128.667 47.667 -233.334 143 -314.001c91.333 -76 204.333 -114 339 -114
c162 0 295.667 81.667 401 245c94 146 141 310 141 492c0 159.333 -35.667 271.333 -107 336c-68 62 -183 93 -345 93zM810.999 2007c66.667 0 120.333 -19.334 161 -58.001l83 -106c31.333 -38.667 68.666 -58 111.999 -58c38 0 66.333 12.333 85 37l46 88l20 59
c9.33301 19.333 29.333 29 60 29c50 0 75 -24.667 75 -74c0 -24 -14.333 -64.333 -43 -121c-26.667 -53.333 -49.667 -90 -69 -110c-37.333 -38 -85 -57 -143 -57c-87.333 0 -155.666 19 -204.999 57c-18 14 -47.333 49.667 -88 107c-28 38 -59.333 57 -94 57
c-20.667 0 -39.167 -3.83301 -55.5 -11.5s-30.5 -19.167 -42.5 -34.5l-44 -85c-16.667 -30 -38.334 -45 -65.001 -45c-20.667 0 -38.667 6.83301 -54 20.5s-23 30.834 -23 51.501c0 7.33301 1 15 3 23c18.667 68 52.334 123 101.001 165c52 44 112 66 180 66z" />
    <glyph glyph-name="Odieresis" unicode="&#xd6;" horiz-adv-x="1635" 
d="M802 -61c-188 0 -347.333 56.332 -478 168.999c-138.667 120 -208 274.667 -208 464c0 230.667 68.333 440.334 205 629.001c152.667 209.333 343 314 571 314c219.333 0 382.333 -49.333 489 -148c111.333 -102.667 167 -264.667 167 -486
c0 -230.667 -62.667 -438.667 -188 -624c-144 -212 -330 -318 -558 -318zM892 1310c-163.333 0 -301.667 -81.332 -415 -243.999c-104.667 -149.333 -157 -314 -157 -494c0 -128.667 47.667 -233.334 143 -314.001c91.333 -76 204.333 -114 339 -114
c162 0 295.667 81.667 401 245c94 146 141 310 141 492c0 159.333 -35.667 271.333 -107 336c-68 62 -183 93 -345 93zM681.999 1848c87.333 0 131 -35 131 -105c0 -20 -14.667 -39.333 -44 -58c-26.667 -16.667 -51.667 -25 -75 -25c-82 0 -123 34.333 -123 103
c0 19.333 12.5 38.333 37.5 57s49.5 28 73.5 28zM1221 1856c22.667 0 45.666 -10.5 68.999 -31.5s35 -41.5 35 -61.5c0 -61.333 -47.667 -92 -143 -92c-27.333 0 -51.666 7 -72.999 21c-24 16 -36 37 -36 63c0 46 15 75.667 45 89c16.667 8 51 12 103 12z" />
    <glyph glyph-name="multiply" unicode="&#xd7;" horiz-adv-x="984" 
d="M601 638c46 -34 91.334 -75.333 136.001 -124c60 -65.333 90 -116.333 90 -153c0 -26.667 -7.33301 -50.334 -22 -71.001c-16.667 -22.667 -37.667 -34 -63 -34c-48.667 0 -100.334 44 -155.001 132c-20 32.667 -52 63.667 -96 93l-148 -186
c-16.667 -47.333 -48.334 -71 -95.001 -71c-28 0 -51.667 8.83301 -71 26.5s-29 40.167 -29 67.5c0 38.667 17 77.334 51 116.001c54.667 62 82.667 94.333 84 97l50 81c-47.333 47.333 -82 81 -104 101c-40 36.667 -78 67 -114 91c-32 21.333 -48 48.333 -48 81
c0 27.333 9.83301 51.5 29.5 72.5s42.834 31.5 69.501 31.5c45.333 0 140.666 -72 285.999 -216c52 62 107 115.333 165 160c13.333 10 32 26 56 48c22 26 47 39 75 39c26.667 0 50.5 -10.167 71.5 -30.5s31.5 -43.833 31.5 -70.5c0 -32.667 -23 -68.667 -69 -108l-108 -88
c-23.333 -24 -47.666 -52.333 -72.999 -85z" />
    <glyph glyph-name="Oslash" unicode="&#xd8;" horiz-adv-x="1635" 
d="M1328 1099c-76.667 -72 -168.334 -165.333 -275.001 -280l-266 -288l-280 -295c87.333 -61.333 190.333 -92 309 -92c166.667 0 302.334 84.333 407.001 253c90 146 135 307.333 135 484c0 88 -10 160.667 -30 218zM388 363l414.001 442.001l418 437
c-68.667 45.333 -173.334 68 -314.001 68c-166.667 0 -306.667 -83.667 -420 -251c-101.333 -150 -152 -312.333 -152 -487c0 -76.667 18 -146.334 54 -209.001zM177.001 -89.999c-24.667 0 -46.5 9.16699 -65.5 27.5s-28.5 39.833 -28.5 64.5c0 16.667 23.333 51 70 103
l94 101c-78 105.333 -117 227.333 -117 366c0 234 69.667 445 209 633c152.667 206.667 341.667 310 567 310c199.333 0 352 -40.667 458 -122c97.333 99.333 155 149 173 149c24.667 0 46.5 -8.66699 65.5 -26s28.5 -38 28.5 -62c0 -25.333 -50 -91 -150 -197
c54 -96 81 -221.333 81 -376c0 -234.667 -64 -444.667 -192 -630c-144 -208 -328.667 -312 -554 -312c-174 0 -324.667 49.333 -452 148l-92 -102c-46 -50 -77.667 -75 -95 -75z" />
    <glyph glyph-name="Ugrave" unicode="&#xd9;" horiz-adv-x="1509" 
d="M790 -40c-207.333 0 -362.001 59.668 -464.001 179.001c-82.667 96 -134.667 238 -156 426c-10 84.667 -15 253.667 -15 507c0 93.333 2 168.666 6 225.999c4 60.667 10 103 18 127c16.667 48.667 46.667 73 90 73c61.333 0 92 -56.333 92 -169v-587
c0 -404 141.333 -606 424 -606c266 0 399 340 399 1020v98c-0.666992 40 -1 66.667 -1 80c0 41.333 7.33301 77.666 22 108.999c18.667 40 46.334 60 83.001 60c66.667 0 100 -45.667 100 -137c0 -27.333 0.333008 -68.666 1 -123.999v-124
c0 -772 -199.667 -1158 -599 -1158zM926.999 1723c0 -24 -9.5 -44.834 -28.5 -62.501s-40.5 -26.5 -64.5 -26.5c-28.667 0 -52.667 14 -72 42l-100 149c-35.333 48.667 -76.666 91.334 -123.999 128.001c-26 20 -39 43.667 -39 71c0 24 8.83301 45.5 26.5 64.5
s38.5 28.5 62.5 28.5c41.333 0 108.666 -55.333 201.999 -166c91.333 -109.333 137 -185.333 137 -228z" />
    <glyph glyph-name="Uacute" unicode="&#xda;" horiz-adv-x="1509" 
d="M790 -40c-207.333 0 -362.001 59.668 -464.001 179.001c-82.667 96 -134.667 238 -156 426c-10 84.667 -15 253.667 -15 507c0 93.333 2 168.666 6 225.999c4 60.667 10 103 18 127c16.667 48.667 46.667 73 90 73c61.333 0 92 -56.333 92 -169v-587
c0 -404 141.333 -606 424 -606c266 0 399 340 399 1020v98c-0.666992 40 -1 66.667 -1 80c0 41.333 7.33301 77.666 22 108.999c18.667 40 46.334 60 83.001 60c66.667 0 100 -45.667 100 -137c0 -27.333 0.333008 -68.666 1 -123.999v-124
c0 -772 -199.667 -1158 -599 -1158zM766.999 1643c-24 0 -45.167 9.33105 -63.5 27.998s-27.5 40 -27.5 64c0 22.667 10.333 44.334 31 65.001c28.667 28 72.334 81 131.001 159c44 57.333 93 105 147 143c18 12.667 35.667 19 53 19c24 0 45 -9.5 63 -28.5
s27 -40.5 27 -64.5c0 -26.667 -12.667 -50 -38 -70c-46.667 -37.333 -91.667 -85.666 -135 -144.999c-45.333 -62.667 -88.333 -111 -129 -145c-18.667 -16.667 -38.334 -25 -59.001 -25z" />
    <glyph glyph-name="Ucircumflex" unicode="&#xdb;" horiz-adv-x="1509" 
d="M790 -40c-207.333 0 -362.001 59.668 -464.001 179.001c-82.667 96 -134.667 238 -156 426c-10 84.667 -15 253.667 -15 507c0 93.333 2 168.666 6 225.999c4 60.667 10 103 18 127c16.667 48.667 46.667 73 90 73c61.333 0 92 -56.333 92 -169v-587
c0 -404 141.333 -606 424 -606c266 0 399 340 399 1020v98c-0.666992 40 -1 66.667 -1 80c0 41.333 7.33301 77.666 22 108.999c18.667 40 46.334 60 83.001 60c66.667 0 100 -45.667 100 -137c0 -27.333 0.333008 -68.666 1 -123.999v-124
c0 -772 -199.667 -1158 -599 -1158zM817.999 2146c36.667 0 80.666 -22.333 131.999 -67c16 -14 52.333 -51.333 109 -112l159 -170c17.333 -20 26 -40.333 26 -61c0 -24 -9.16699 -45.167 -27.5 -63.5s-39.833 -27.5 -64.5 -27.5c-22 0 -43 9.66699 -63 29
c-53.333 60 -136.666 146.667 -249.999 260c-169.333 -208 -278 -312 -326 -312c-24 0 -45.167 9.33301 -63.5 28s-27.5 40 -27.5 64c0 23.333 10 45 30 65c37.333 36 139 148 305 336c18 20.667 38.333 31 61 31z" />
    <glyph glyph-name="Udieresis" unicode="&#xdc;" horiz-adv-x="1509" 
d="M790 -40c-207.333 0 -362.001 59.668 -464.001 179.001c-82.667 96 -134.667 238 -156 426c-10 84.667 -15 253.667 -15 507c0 93.333 2 168.666 6 225.999c4 60.667 10 103 18 127c16.667 48.667 46.667 73 90 73c61.333 0 92 -56.333 92 -169v-587
c0 -404 141.333 -606 424 -606c266 0 399 340 399 1020v98c-0.666992 40 -1 66.667 -1 80c0 41.333 7.33301 77.666 22 108.999c18.667 40 46.334 60 83.001 60c66.667 0 100 -45.667 100 -137c0 -27.333 0.333008 -68.666 1 -123.999v-124
c0 -772 -199.667 -1158 -599 -1158zM570.999 1825c87.333 0 131 -35 131 -105c0 -20 -14.667 -39.333 -44 -58c-26.667 -16.667 -51.667 -25 -75 -25c-82 0 -123 34.333 -123 103c0 19.333 12.5 38.333 37.5 57s49.5 28 73.5 28zM1110 1833
c22.667 0 45.666 -10.5 68.999 -31.5s35 -41.5 35 -61.5c0 -61.333 -47.667 -92 -143 -92c-27.333 0 -51.666 7 -72.999 21c-24 16 -36 37 -36 63c0 46 15 75.667 45 89c16.667 8 51 12 103 12z" />
    <glyph glyph-name="Yacute" unicode="&#xdd;" horiz-adv-x="1301" 
d="M1172 1279c-16 -25.333 -37.334 -64.334 -64.001 -117.001l-172 -425c-66.667 -159.333 -129.334 -298.666 -188.001 -417.999l-125 -223l-53 -108c-22 -38.667 -51.667 -58 -89 -58c-26 0 -49.667 9.66699 -71 29s-32 43.333 -32 72c0 22.667 31.333 93.667 94 213
l123 225c-119.333 154 -196.666 275.333 -231.999 364c-30 75.333 -80 165.666 -150 270.999c-96 144 -152.333 231 -169 261c-10 18 -15 36 -15 54c0 28.667 10.5 52.834 31.5 72.501s44.833 29.5 71.5 29.5c32.667 0 60 -15.667 82 -47l80 -124
c70.667 -104.667 117.334 -176 140.001 -214c50 -82 89 -158 117 -228c22 -55.333 69 -131 141 -227l229 558c26 46 62 117 108 213c18.667 45.333 49.667 68 93 68c26.667 0 50.5 -9.33301 71.5 -28s31.5 -42.667 31.5 -72c0 -30.667 -17.667 -77.667 -53 -141z
M665.999 1728c-24 0 -45.167 9.33105 -63.5 27.998s-27.5 40 -27.5 64c0 22.667 10.333 44.334 31 65.001c28.667 28 72.334 81 131.001 159c44 57.333 93 105 147 143c18 12.667 35.667 19 53 19c24 0 45 -9.5 63 -28.5s27 -40.5 27 -64.5c0 -26.667 -12.667 -50 -38 -70
c-46.667 -37.333 -91.667 -85.666 -135 -144.999c-45.333 -62.667 -88.333 -111 -129 -145c-18.667 -16.667 -38.334 -25 -59.001 -25z" />
    <glyph glyph-name="Thorn" unicode="&#xde;" horiz-adv-x="1066" 
d="M323 1169l-33 -586.001c68.667 -11.333 111.667 -17 129 -17c112 0 206.333 28.333 283 85c84 62.667 126 146.334 126 251.001c0 74.667 -40 139 -120 193c-74 49.333 -153.667 74 -239 74h-146zM325 1371l0.00195312 -20.999l167 8
c100 4.66699 203.667 -26.333 311 -93c138.667 -87.333 208 -208.333 208 -363c0 -165.333 -62.667 -297 -188 -395c-112 -87.333 -246.667 -131 -404 -131c-24.667 0 -69.334 5.33301 -134.001 16l-2 -321c0 -26.667 -8.66699 -49.167 -26 -67.5s-39 -27.5 -65 -27.5
c-26.667 0 -48.667 9.16699 -66 27.5s-26 40.833 -26 67.5v294c0 98 6 236 18 414c13.333 192.667 20.666 330.667 21.999 414v138c0 66 4 114 12 144c14 51.333 46.667 76.666 98 75.999c52.667 -0.666992 79 -42.667 79 -126c0 -18.667 -1.33301 -36.667 -4 -54z" />
    <glyph glyph-name="germandbls" unicode="&#xdf;" horiz-adv-x="908" 
d="M502 1379c-66.667 0 -119.499 -31.8359 -158.499 -95.5029s-64.167 -159.167 -75.5 -286.5c-12 -139.333 -18 -289.666 -18 -450.999c0 -40.667 1.16699 -101.667 3.5 -183s3.5 -142.666 3.5 -183.999c0 -102.667 -2.66699 -169.667 -8 -201
c-14.667 -90 -49.667 -135 -105 -135c-26.667 0 -49.667 8.66699 -69 26s-29 39 -29 65c0 4.66699 0.666992 11.334 2 20.001c13.333 91.333 20 179.333 20 264c0 35.333 1.66699 88.333 5 159s5 123.667 5 159c0 26 -0.333008 64.833 -1 116.5s-1 90.167 -1 115.5
c0 231.333 19.333 403.666 58 516.999c64.667 190 188.667 285 372 285c108 0 192.667 -42 254 -126c54 -74.667 81 -168 81 -280c0 -96.667 -68.667 -213 -206 -349c83.333 -56.667 145.833 -130.167 187.5 -220.5s62.5 -197.166 62.5 -320.499
c0 -116 -28.333 -203 -85 -261s-141.667 -87 -255 -87c-60 0 -113.333 15.333 -160 46c-53.333 35.333 -80 81.333 -80 138c0 51.333 21.667 77 65 77c20 0 46.5 -12.167 79.5 -36.5s63.167 -36.5 90.5 -36.5c55.333 0 94.666 10.333 117.999 31c26 22.667 39 62 39 118
c0 127.333 -26 229.333 -78 306c-26.667 38.667 -75 84 -145 136c-52 38.667 -78 74.667 -78 108c0 28.667 21 63 63 103l117 110c42 48 63 96 63 144c0 70 -11.333 122.333 -34 157s-57 52 -103 52z" />
    <glyph glyph-name="agrave" unicode="&#xe0;" horiz-adv-x="1048" 
d="M935 -66c-12.667 0 -35.6641 14.668 -68.9971 44.001c-30 27.333 -52.333 51.666 -67 72.999c-64 -34.667 -120.333 -60.834 -169 -78.501s-89.334 -26.5 -122.001 -26.5c-156 0 -269.667 44 -341 132c-67.333 82.667 -101 209.334 -101 380.001
c0 161.333 55.5 299.333 166.5 414s243.5 172 397.5 172c58 0 123 -15 195 -45c90.667 -37.333 136 -82.333 136 -135c0 -18 -6.66699 -34 -20 -48c-6.66699 -25.333 -11.834 -67 -15.501 -125s-5.83398 -132.333 -6.50098 -223c-0.666992 -82.667 5 -148 17 -196
c6.66699 -29.333 27.667 -88 63 -176c4.66699 -12 12.334 -29.667 23.001 -53l6 -17c0 -26.667 -9.33301 -48.667 -28 -66s-40.334 -26 -65.001 -26zM727.003 629.001c0 28.667 1.83496 59.833 5.50195 93.5s9.16699 69.5 16.5 107.5c-24.667 12.667 -45.834 22 -63.501 28
s-31.834 9 -42.501 9c-103.333 0 -192.5 -42.167 -267.5 -126.5s-112.5 -181.5 -112.5 -291.5c0 -109.333 19.333 -191.333 58 -246s96.667 -82 174 -82c64 0 118.333 11.667 163 35c24 12.667 57.667 38 101 76c-21.333 176.667 -32 309 -32 397zM748.005 1260
c0 -24 -9.5 -44.834 -28.5 -62.501s-40.5 -26.5 -64.5 -26.5c-28.667 0 -52.667 14 -72 42l-100 149c-35.333 48.667 -76.666 91.334 -123.999 128.001c-26 20 -39 43.667 -39 71c0 24 8.83301 45.5 26.5 64.5s38.5 28.5 62.5 28.5c41.333 0 108.666 -55.333 201.999 -166
c91.333 -109.333 137 -185.333 137 -228z" />
    <glyph glyph-name="aacute" unicode="&#xe1;" horiz-adv-x="1048" 
d="M935 -66c-12.667 0 -35.6641 14.668 -68.9971 44.001c-30 27.333 -52.333 51.666 -67 72.999c-64 -34.667 -120.333 -60.834 -169 -78.501s-89.334 -26.5 -122.001 -26.5c-156 0 -269.667 44 -341 132c-67.333 82.667 -101 209.334 -101 380.001
c0 161.333 55.5 299.333 166.5 414s243.5 172 397.5 172c58 0 123 -15 195 -45c90.667 -37.333 136 -82.333 136 -135c0 -18 -6.66699 -34 -20 -48c-6.66699 -25.333 -11.834 -67 -15.501 -125s-5.83398 -132.333 -6.50098 -223c-0.666992 -82.667 5 -148 17 -196
c6.66699 -29.333 27.667 -88 63 -176c4.66699 -12 12.334 -29.667 23.001 -53l6 -17c0 -26.667 -9.33301 -48.667 -28 -66s-40.334 -26 -65.001 -26zM727.003 629.001c0 28.667 1.83496 59.833 5.50195 93.5s9.16699 69.5 16.5 107.5c-24.667 12.667 -45.834 22 -63.501 28
s-31.834 9 -42.501 9c-103.333 0 -192.5 -42.167 -267.5 -126.5s-112.5 -181.5 -112.5 -291.5c0 -109.333 19.333 -191.333 58 -246s96.667 -82 174 -82c64 0 118.333 11.667 163 35c24 12.667 57.667 38 101 76c-21.333 176.667 -32 309 -32 397zM583.005 1187
c-24 0 -45.167 9.33105 -63.5 27.998s-27.5 40 -27.5 64c0 22.667 10.333 44.334 31 65.001c28.667 28 72.334 81 131.001 159c44 57.333 93 105 147 143c18 12.667 35.667 19 53 19c24 0 45 -9.5 63 -28.5s27 -40.5 27 -64.5c0 -26.667 -12.667 -50 -38 -70
c-46.667 -37.333 -91.667 -85.666 -135 -144.999c-45.333 -62.667 -88.333 -111 -129 -145c-18.667 -16.667 -38.334 -25 -59.001 -25z" />
    <glyph glyph-name="acircumflex" unicode="&#xe2;" horiz-adv-x="1048" 
d="M935 -66c-12.667 0 -35.6641 14.668 -68.9971 44.001c-30 27.333 -52.333 51.666 -67 72.999c-64 -34.667 -120.333 -60.834 -169 -78.501s-89.334 -26.5 -122.001 -26.5c-156 0 -269.667 44 -341 132c-67.333 82.667 -101 209.334 -101 380.001
c0 161.333 55.5 299.333 166.5 414s243.5 172 397.5 172c58 0 123 -15 195 -45c90.667 -37.333 136 -82.333 136 -135c0 -18 -6.66699 -34 -20 -48c-6.66699 -25.333 -11.834 -67 -15.501 -125s-5.83398 -132.333 -6.50098 -223c-0.666992 -82.667 5 -148 17 -196
c6.66699 -29.333 27.667 -88 63 -176c4.66699 -12 12.334 -29.667 23.001 -53l6 -17c0 -26.667 -9.33301 -48.667 -28 -66s-40.334 -26 -65.001 -26zM727.003 629.001c0 28.667 1.83496 59.833 5.50195 93.5s9.16699 69.5 16.5 107.5c-24.667 12.667 -45.834 22 -63.501 28
s-31.834 9 -42.501 9c-103.333 0 -192.5 -42.167 -267.5 -126.5s-112.5 -181.5 -112.5 -291.5c0 -109.333 19.333 -191.333 58 -246s96.667 -82 174 -82c64 0 118.333 11.667 163 35c24 12.667 57.667 38 101 76c-21.333 176.667 -32 309 -32 397zM559.005 1698
c36.667 0 80.666 -22.333 131.999 -67c16 -14 52.333 -51.333 109 -112l159 -170c17.333 -20 26 -40.333 26 -61c0 -24 -9.16699 -45.167 -27.5 -63.5s-39.833 -27.5 -64.5 -27.5c-22 0 -43 9.66699 -63 29c-53.333 60 -136.666 146.667 -249.999 260
c-169.333 -208 -278 -312 -326 -312c-24 0 -45.167 9.33301 -63.5 28s-27.5 40 -27.5 64c0 23.333 10 45 30 65c37.333 36 139 148 305 336c18 20.667 38.333 31 61 31z" />
    <glyph glyph-name="atilde" unicode="&#xe3;" horiz-adv-x="1048" 
d="M935 -66c-12.667 0 -35.6641 14.668 -68.9971 44.001c-30 27.333 -52.333 51.666 -67 72.999c-64 -34.667 -120.333 -60.834 -169 -78.501s-89.334 -26.5 -122.001 -26.5c-156 0 -269.667 44 -341 132c-67.333 82.667 -101 209.334 -101 380.001
c0 161.333 55.5 299.333 166.5 414s243.5 172 397.5 172c58 0 123 -15 195 -45c90.667 -37.333 136 -82.333 136 -135c0 -18 -6.66699 -34 -20 -48c-6.66699 -25.333 -11.834 -67 -15.501 -125s-5.83398 -132.333 -6.50098 -223c-0.666992 -82.667 5 -148 17 -196
c6.66699 -29.333 27.667 -88 63 -176c4.66699 -12 12.334 -29.667 23.001 -53l6 -17c0 -26.667 -9.33301 -48.667 -28 -66s-40.334 -26 -65.001 -26zM727.003 629.001c0 28.667 1.83496 59.833 5.50195 93.5s9.16699 69.5 16.5 107.5c-24.667 12.667 -45.834 22 -63.501 28
s-31.834 9 -42.501 9c-103.333 0 -192.5 -42.167 -267.5 -126.5s-112.5 -181.5 -112.5 -291.5c0 -109.333 19.333 -191.333 58 -246s96.667 -82 174 -82c64 0 118.333 11.667 163 35c24 12.667 57.667 38 101 76c-21.333 176.667 -32 309 -32 397zM425.005 1534
c66.667 0 120.333 -19.334 161 -58.001l83 -106c31.333 -38.667 68.666 -58 111.999 -58c38 0 66.333 12.333 85 37l46 88l20 59c9.33301 19.333 29.333 29 60 29c50 0 75 -24.667 75 -74c0 -24 -14.333 -64.333 -43 -121c-26.667 -53.333 -49.667 -90 -69 -110
c-37.333 -38 -85 -57 -143 -57c-87.333 0 -155.666 19 -204.999 57c-18 14 -47.333 49.667 -88 107c-28 38 -59.333 57 -94 57c-20.667 0 -39.167 -3.83301 -55.5 -11.5s-30.5 -19.167 -42.5 -34.5l-44 -85c-16.667 -30 -38.334 -45 -65.001 -45
c-20.667 0 -38.667 6.83301 -54 20.5s-23 30.834 -23 51.501c0 7.33301 1 15 3 23c18.667 68 52.334 123 101.001 165c52 44 112 66 180 66z" />
    <glyph glyph-name="adieresis" unicode="&#xe4;" horiz-adv-x="1048" 
d="M935 -66c-12.667 0 -35.6641 14.668 -68.9971 44.001c-30 27.333 -52.333 51.666 -67 72.999c-64 -34.667 -120.333 -60.834 -169 -78.501s-89.334 -26.5 -122.001 -26.5c-156 0 -269.667 44 -341 132c-67.333 82.667 -101 209.334 -101 380.001
c0 161.333 55.5 299.333 166.5 414s243.5 172 397.5 172c58 0 123 -15 195 -45c90.667 -37.333 136 -82.333 136 -135c0 -18 -6.66699 -34 -20 -48c-6.66699 -25.333 -11.834 -67 -15.501 -125s-5.83398 -132.333 -6.50098 -223c-0.666992 -82.667 5 -148 17 -196
c6.66699 -29.333 27.667 -88 63 -176c4.66699 -12 12.334 -29.667 23.001 -53l6 -17c0 -26.667 -9.33301 -48.667 -28 -66s-40.334 -26 -65.001 -26zM727.003 629.001c0 28.667 1.83496 59.833 5.50195 93.5s9.16699 69.5 16.5 107.5c-24.667 12.667 -45.834 22 -63.501 28
s-31.834 9 -42.501 9c-103.333 0 -192.5 -42.167 -267.5 -126.5s-112.5 -181.5 -112.5 -291.5c0 -109.333 19.333 -191.333 58 -246s96.667 -82 174 -82c64 0 118.333 11.667 163 35c24 12.667 57.667 38 101 76c-21.333 176.667 -32 309 -32 397zM345.005 1372
c87.333 0 131 -35 131 -105c0 -20 -14.667 -39.333 -44 -58c-26.667 -16.667 -51.667 -25 -75 -25c-82 0 -123 34.333 -123 103c0 19.333 12.5 38.333 37.5 57s49.5 28 73.5 28zM884.005 1380c22.667 0 45.666 -10.5 68.999 -31.5s35 -41.5 35 -61.5
c0 -61.333 -47.667 -92 -143 -92c-27.333 0 -51.666 7 -72.999 21c-24 16 -36 37 -36 63c0 46 15 75.667 45 89c16.667 8 51 12 103 12z" />
    <glyph glyph-name="aring" unicode="&#xe5;" horiz-adv-x="1048" 
d="M935 -66c-12.667 0 -35.6641 14.668 -68.9971 44.001c-30 27.333 -52.333 51.666 -67 72.999c-64 -34.667 -120.333 -60.834 -169 -78.501s-89.334 -26.5 -122.001 -26.5c-156 0 -269.667 44 -341 132c-67.333 82.667 -101 209.334 -101 380.001
c0 161.333 55.5 299.333 166.5 414s243.5 172 397.5 172c58 0 123 -15 195 -45c90.667 -37.333 136 -82.333 136 -135c0 -18 -6.66699 -34 -20 -48c-6.66699 -25.333 -11.834 -67 -15.501 -125s-5.83398 -132.333 -6.50098 -223c-0.666992 -82.667 5 -148 17 -196
c6.66699 -29.333 27.667 -88 63 -176c4.66699 -12 12.334 -29.667 23.001 -53l6 -17c0 -26.667 -9.33301 -48.667 -28 -66s-40.334 -26 -65.001 -26zM727.003 629.001c0 28.667 1.83496 59.833 5.50195 93.5s9.16699 69.5 16.5 107.5c-24.667 12.667 -45.834 22 -63.501 28
s-31.834 9 -42.501 9c-103.333 0 -192.5 -42.167 -267.5 -126.5s-112.5 -181.5 -112.5 -291.5c0 -109.333 19.333 -191.333 58 -246s96.667 -82 174 -82c64 0 118.333 11.667 163 35c24 12.667 57.667 38 101 76c-21.333 176.667 -32 309 -32 397zM610.005 1333
c57.333 2 99.333 10 126 24c44.667 24 67 68 67 132c0 38.667 -18 69 -54 91c-30 19.333 -65.667 29 -107 29c-144.667 0 -215.667 -53.333 -213 -160c0.666992 -30.667 21 -58 61 -82s80 -35.333 120 -34zM279.005 1449c0 96.667 34.334 173.001 103.001 229.001
c66 53.333 152.667 80 260 80c83.333 0 154.666 -23.333 213.999 -70c64.667 -51.333 97 -117.666 97 -198.999c0 -98.667 -29.833 -173.334 -89.5 -224.001s-149.167 -77 -268.5 -79c-90.667 -1.33301 -166 24 -226 76c-60 51.333 -90 113.666 -90 186.999z" />
    <glyph glyph-name="ae" unicode="&#xe6;" horiz-adv-x="1867" 
d="M1289 865c-163.333 0 -271.334 -126.333 -324.001 -379l292 133c115.333 54.667 206.333 110 273 166c-57.333 53.333 -137.666 80 -240.999 80zM805.999 54c-28 -26.667 -66 -50.332 -114 -70.999c-50.667 -21.333 -96 -32 -136 -32c-144.667 0 -263 49 -355 147
c-89.333 95.333 -134 216 -134 362c0 156.667 59.667 291.667 179 405c116.667 111.333 254 167 412 167c68.667 0 149.334 -16.333 242.001 -49c21.333 -7.33301 34.333 -45 39 -113c37.333 54.667 89.333 98 156 130c62.667 30 127.334 45 194.001 45
c106.667 0 195 -17.667 265 -53c90 -46.667 135 -118.334 135 -215.001c0 -68 -39 -129.667 -117 -185c-31.333 -22 -100.666 -58.333 -207.999 -109l-382 -181c74.667 -111.333 186 -167 334 -167c54 0 110.333 9 169 27c70 21.333 118.333 49.833 145 85.5
s51 53.5 73 53.5c23.333 0 44.166 -8.83301 62.499 -26.5s27.5 -38.167 27.5 -61.5c0 -77.333 -62.667 -142.333 -188 -195c-102 -42.667 -198.333 -64 -289 -64c-154.667 0 -267.667 37.667 -339 113c3.33301 -13.333 6.66602 -36 9.99902 -68
c2.66699 -27.333 -23 -41 -77 -41c-35.333 0 -60.333 8.66699 -75 26c-8.66699 10 -18.334 33.333 -29.001 70zM789.999 828.002l-70.002 35.001c-12.667 4.66699 -38.334 7 -77.001 7c-105.333 0 -196 -44.667 -272 -134c-72 -84.667 -108 -180.667 -108 -288
c0 -84 28.667 -160 86 -228c60.667 -71.333 132.334 -107 215.001 -107c44.667 0 85.834 8.5 123.501 25.5s71.834 42.5 102.501 76.5c-14.667 84 -22 140 -22 168c0 187.333 7.33301 335.666 22 444.999z" />
    <glyph glyph-name="ccedilla" unicode="&#xe7;" horiz-adv-x="1052" 
d="M770 -196c0 -82.667 -20.166 -144.833 -60.499 -186.5s-100.833 -62.5 -181.5 -62.5c-56.667 0 -110.334 10.667 -161.001 32c-64 28 -96 66.333 -96 115c0 36 22.667 54 68 54c24 0 51.167 -8.16699 81.5 -24.5s62.5 -24.5 96.5 -24.5c32.667 0.666992 57 8.66699 73 24
s24 38 24 68c0 32 -12.5 60.667 -37.5 86s-62.833 47.666 -113.5 66.999c-106 24 -191 74.667 -255 152c-68.667 82 -103 182 -103 300c0 135.333 45 275 135 419c100 160 212.667 240 338 240c65.333 0 138.333 -15.333 219 -46c102 -39.333 153 -87.333 153 -144
c0 -25.333 -8.33301 -47.833 -25 -67.5s-37.334 -29.5 -62.001 -29.5c-19.333 0 -36.166 5.83301 -50.499 17.5l-41.5 34.5c-39.333 31.333 -103.666 47 -192.999 47c-68 0 -135.333 -60.667 -202 -182c-60.667 -111.333 -91 -207.666 -91 -288.999
c0 -88 30 -157.333 90 -208c56 -47.333 128 -71 216 -71c40 0 82.667 10.667 128 32l116 62c20 10.667 34.333 16 43 16c24.667 0 46 -9.83301 64 -29.5s27 -42.167 27 -67.5c0 -68.667 -85.333 -128 -256 -178c19.333 -25.333 33.666 -51 42.999 -77s14 -52.333 14 -79z
" />
    <glyph glyph-name="egrave" unicode="&#xe8;" horiz-adv-x="1122" 
d="M606 -46c-150.667 0 -272.667 37.6689 -366 113.002c-102 83.333 -153 200 -153 350c0 173.333 42 318.666 126 435.999c91.333 128 213.333 192 366 192c110.667 0 201 -18.667 271 -56c86 -46 129 -116.667 129 -212c0 -66.667 -37.667 -127.334 -113 -182.001
c-33.333 -24 -104 -61.333 -212 -112l-382 -181c37.333 -55.333 83.833 -97 139.5 -125s120.5 -42 194.5 -42c46 0 100 8.66699 162 26c78.667 22 129.334 50.833 152.001 86.5s47 53.5 73 53.5c23.333 0 44.166 -8.83301 62.499 -26.5s27.5 -38.167 27.5 -61.5
c0 -74 -59.667 -137.667 -179 -191c-102 -45.333 -201.333 -68 -298 -68zM579 865.002c-81.333 0 -149.001 -31.5 -203.001 -94.5s-94.333 -157.833 -121 -284.5l307 146c120.667 58.667 206.667 109.667 258 153c-57.333 53.333 -137.666 80 -240.999 80zM734.999 1267
c0 -24 -9.5 -44.834 -28.5 -62.501s-40.5 -26.5 -64.5 -26.5c-28.667 0 -52.667 14 -72 42l-100 149c-35.333 48.667 -76.666 91.334 -123.999 128.001c-26 20 -39 43.667 -39 71c0 24 8.83301 45.5 26.5 64.5s38.5 28.5 62.5 28.5c41.333 0 108.666 -55.333 201.999 -166
c91.333 -109.333 137 -185.333 137 -228z" />
    <glyph glyph-name="eacute" unicode="&#xe9;" horiz-adv-x="1122" 
d="M606 -46c-150.667 0 -272.667 37.6689 -366 113.002c-102 83.333 -153 200 -153 350c0 173.333 42 318.666 126 435.999c91.333 128 213.333 192 366 192c110.667 0 201 -18.667 271 -56c86 -46 129 -116.667 129 -212c0 -66.667 -37.667 -127.334 -113 -182.001
c-33.333 -24 -104 -61.333 -212 -112l-382 -181c37.333 -55.333 83.833 -97 139.5 -125s120.5 -42 194.5 -42c46 0 100 8.66699 162 26c78.667 22 129.334 50.833 152.001 86.5s47 53.5 73 53.5c23.333 0 44.166 -8.83301 62.499 -26.5s27.5 -38.167 27.5 -61.5
c0 -74 -59.667 -137.667 -179 -191c-102 -45.333 -201.333 -68 -298 -68zM579 865.002c-81.333 0 -149.001 -31.5 -203.001 -94.5s-94.333 -157.833 -121 -284.5l307 146c120.667 58.667 206.667 109.667 258 153c-57.333 53.333 -137.666 80 -240.999 80zM594.999 1187
c-24 0 -45.167 9.33105 -63.5 27.998s-27.5 40 -27.5 64c0 22.667 10.333 44.334 31 65.001c28.667 28 72.334 81 131.001 159c44 57.333 93 105 147 143c18 12.667 35.667 19 53 19c24 0 45 -9.5 63 -28.5s27 -40.5 27 -64.5c0 -26.667 -12.667 -50 -38 -70
c-46.667 -37.333 -91.667 -85.666 -135 -144.999c-45.333 -62.667 -88.333 -111 -129 -145c-18.667 -16.667 -38.334 -25 -59.001 -25z" />
    <glyph glyph-name="ecircumflex" unicode="&#xea;" horiz-adv-x="1122" 
d="M606 -46c-150.667 0 -272.667 37.6689 -366 113.002c-102 83.333 -153 200 -153 350c0 173.333 42 318.666 126 435.999c91.333 128 213.333 192 366 192c110.667 0 201 -18.667 271 -56c86 -46 129 -116.667 129 -212c0 -66.667 -37.667 -127.334 -113 -182.001
c-33.333 -24 -104 -61.333 -212 -112l-382 -181c37.333 -55.333 83.833 -97 139.5 -125s120.5 -42 194.5 -42c46 0 100 8.66699 162 26c78.667 22 129.334 50.833 152.001 86.5s47 53.5 73 53.5c23.333 0 44.166 -8.83301 62.499 -26.5s27.5 -38.167 27.5 -61.5
c0 -74 -59.667 -137.667 -179 -191c-102 -45.333 -201.333 -68 -298 -68zM579 865.002c-81.333 0 -149.001 -31.5 -203.001 -94.5s-94.333 -157.833 -121 -284.5l307 146c120.667 58.667 206.667 109.667 258 153c-57.333 53.333 -137.666 80 -240.999 80zM584.999 1690
c36.667 0 80.666 -22.333 131.999 -67c16 -14 52.333 -51.333 109 -112l159 -170c17.333 -20 26 -40.333 26 -61c0 -24 -9.16699 -45.167 -27.5 -63.5s-39.833 -27.5 -64.5 -27.5c-22 0 -43 9.66699 -63 29c-53.333 60 -136.666 146.667 -249.999 260
c-169.333 -208 -278 -312 -326 -312c-24 0 -45.167 9.33301 -63.5 28s-27.5 40 -27.5 64c0 23.333 10 45 30 65c37.333 36 139 148 305 336c18 20.667 38.333 31 61 31z" />
    <glyph glyph-name="edieresis" unicode="&#xeb;" horiz-adv-x="1122" 
d="M606 -46c-150.667 0 -272.667 37.6689 -366 113.002c-102 83.333 -153 200 -153 350c0 173.333 42 318.666 126 435.999c91.333 128 213.333 192 366 192c110.667 0 201 -18.667 271 -56c86 -46 129 -116.667 129 -212c0 -66.667 -37.667 -127.334 -113 -182.001
c-33.333 -24 -104 -61.333 -212 -112l-382 -181c37.333 -55.333 83.833 -97 139.5 -125s120.5 -42 194.5 -42c46 0 100 8.66699 162 26c78.667 22 129.334 50.833 152.001 86.5s47 53.5 73 53.5c23.333 0 44.166 -8.83301 62.499 -26.5s27.5 -38.167 27.5 -61.5
c0 -74 -59.667 -137.667 -179 -191c-102 -45.333 -201.333 -68 -298 -68zM579 865.002c-81.333 0 -149.001 -31.5 -203.001 -94.5s-94.333 -157.833 -121 -284.5l307 146c120.667 58.667 206.667 109.667 258 153c-57.333 53.333 -137.666 80 -240.999 80zM377.999 1469
c87.333 0 131 -35 131 -105c0 -20 -14.667 -39.333 -44 -58c-26.667 -16.667 -51.667 -25 -75 -25c-82 0 -123 34.333 -123 103c0 19.333 12.5 38.333 37.5 57s49.5 28 73.5 28zM916.999 1477c22.667 0 45.666 -10.5 68.999 -31.5s35 -41.5 35 -61.5
c0 -61.333 -47.667 -92 -143 -92c-27.333 0 -51.666 7 -72.999 21c-24 16 -36 37 -36 63c0 46 15 75.667 45 89c16.667 8 51 12 103 12z" />
    <glyph glyph-name="igrave" unicode="&#xec;" horiz-adv-x="574" 
d="M375 454c0 -40 1.16699 -99.833 3.5 -179.5s3.5 -139.5 3.5 -179.5c0 -29.333 -9 -53.333 -27 -72s-41.667 -28 -71 -28c-28.667 0 -52.167 9.33301 -70.5 28s-27.5 42.667 -27.5 72c0 40 -1.16699 99.833 -3.5 179.5s-3.5 139.5 -3.5 179.5
c0 62.667 3.33301 140.834 10 234.501s10 171.834 10 234.501c0 30 9.16699 54.333 27.5 73s41.833 28 70.5 28s52.167 -9.33301 70.5 -28s27.5 -43 27.5 -73c0 -62.667 -3.33301 -140.834 -10 -234.501s-10 -171.834 -10 -234.501zM453 1267
c0 -24 -9.5 -44.834 -28.5 -62.501s-40.5 -26.5 -64.5 -26.5c-28.667 0 -52.667 14 -72 42l-100 149c-35.333 48.667 -76.666 91.334 -123.999 128.001c-26 20 -39 43.667 -39 71c0 24 8.83301 45.5 26.5 64.5s38.5 28.5 62.5 28.5c41.333 0 108.666 -55.333 201.999 -166
c91.333 -109.333 137 -185.333 137 -228z" />
    <glyph glyph-name="iacute" unicode="&#xed;" horiz-adv-x="574" 
d="M375 454c0 -40 1.16699 -99.833 3.5 -179.5s3.5 -139.5 3.5 -179.5c0 -29.333 -9 -53.333 -27 -72s-41.667 -28 -71 -28c-28.667 0 -52.167 9.33301 -70.5 28s-27.5 42.667 -27.5 72c0 40 -1.16699 99.833 -3.5 179.5s-3.5 139.5 -3.5 179.5
c0 62.667 3.33301 140.834 10 234.501s10 171.834 10 234.501c0 30 9.16699 54.333 27.5 73s41.833 28 70.5 28s52.167 -9.33301 70.5 -28s27.5 -43 27.5 -73c0 -62.667 -3.33301 -140.834 -10 -234.501s-10 -171.834 -10 -234.501zM187 1187
c-24 0 -45.167 9.33105 -63.5 27.998s-27.5 40 -27.5 64c0 22.667 10.333 44.334 31 65.001c28.667 28 72.334 81 131.001 159c44 57.333 93 105 147 143c18 12.667 35.667 19 53 19c24 0 45 -9.5 63 -28.5s27 -40.5 27 -64.5c0 -26.667 -12.667 -50 -38 -70
c-46.667 -37.333 -91.667 -85.666 -135 -144.999c-45.333 -62.667 -88.333 -111 -129 -145c-18.667 -16.667 -38.334 -25 -59.001 -25z" />
    <glyph glyph-name="icircumflex" unicode="&#xee;" horiz-adv-x="574" 
d="M375 454c0 -40 1.16699 -99.833 3.5 -179.5s3.5 -139.5 3.5 -179.5c0 -29.333 -9 -53.333 -27 -72s-41.667 -28 -71 -28c-28.667 0 -52.167 9.33301 -70.5 28s-27.5 42.667 -27.5 72c0 40 -1.16699 99.833 -3.5 179.5s-3.5 139.5 -3.5 179.5
c0 62.667 3.33301 140.834 10 234.501s10 171.834 10 234.501c0 30 9.16699 54.333 27.5 73s41.833 28 70.5 28s52.167 -9.33301 70.5 -28s27.5 -43 27.5 -73c0 -62.667 -3.33301 -140.834 -10 -234.501s-10 -171.834 -10 -234.501zM254 1640
c36.667 0 80.666 -22.333 131.999 -67c16 -14 52.333 -51.333 109 -112l159 -170c17.333 -20 26 -40.333 26 -61c0 -24 -9.16699 -45.167 -27.5 -63.5s-39.833 -27.5 -64.5 -27.5c-22 0 -43 9.66699 -63 29c-53.333 60 -136.666 146.667 -249.999 260
c-169.333 -208 -278 -312 -326 -312c-24 0 -45.167 9.33301 -63.5 28s-27.5 40 -27.5 64c0 23.333 10 45 30 65c37.333 36 139 148 305 336c18 20.667 38.333 31 61 31z" />
    <glyph glyph-name="idieresis" unicode="&#xef;" horiz-adv-x="574" 
d="M375 454c0 -40 1.16699 -99.833 3.5 -179.5s3.5 -139.5 3.5 -179.5c0 -29.333 -9 -53.333 -27 -72s-41.667 -28 -71 -28c-28.667 0 -52.167 9.33301 -70.5 28s-27.5 42.667 -27.5 72c0 40 -1.16699 99.833 -3.5 179.5s-3.5 139.5 -3.5 179.5
c0 62.667 3.33301 140.834 10 234.501s10 171.834 10 234.501c0 30 9.16699 54.333 27.5 73s41.833 28 70.5 28s52.167 -9.33301 70.5 -28s27.5 -43 27.5 -73c0 -62.667 -3.33301 -140.834 -10 -234.501s-10 -171.834 -10 -234.501zM-11 1372c87.333 0 131 -35 131 -105
c0 -20 -14.667 -39.333 -44 -58c-26.667 -16.667 -51.667 -25 -75 -25c-82 0 -123 34.333 -123 103c0 19.333 12.5 38.333 37.5 57s49.5 28 73.5 28zM528 1380c22.667 0 45.666 -10.5 68.999 -31.5s35 -41.5 35 -61.5c0 -61.333 -47.667 -92 -143 -92
c-27.333 0 -51.666 7 -72.999 21c-24 16 -36 37 -36 63c0 46 15 75.667 45 89c16.667 8 51 12 103 12z" />
    <glyph glyph-name="eth" unicode="&#xf0;" horiz-adv-x="1042" 
d="M364 359c0 -52 18.666 -101.333 55.999 -148c40 -49.333 85.667 -74 137 -74c96 0 165.333 47 208 141c32 69.333 48 158.333 48 267c0 38 -19 110.667 -57 218c-35.333 -8.66699 -87.666 -24 -156.999 -46c-156.667 -62 -235 -181.333 -235 -358zM458.999 1280
l-91.001 75.002c-39.333 34 -59 64.333 -59 91c0 24 9.16699 45.333 27.5 64s39.5 28 63.5 28c40.667 0 110 -58 208 -174c116 60.667 195.333 91 238 91c27.333 0 49.833 -8.83301 67.5 -26.5s26.5 -40.167 26.5 -67.5c0 -23.333 -9.66699 -42.333 -29 -57l-65 -37
l-122 -56c178 -259.333 267 -481.333 267 -666c0 -159.333 -31.667 -291.333 -95 -396c-76.667 -126.667 -189.667 -190 -339 -190c-100.667 0 -188.334 42 -263.001 126c-72.667 80.667 -109 172 -109 274c0 141.333 49.667 265.333 149 372
c94.667 101.333 213 165.666 355 192.999c-35.333 75.333 -72.666 143.666 -111.999 204.999l-117 -71c-62 -36 -102 -54 -120 -54c-25.333 0 -47.166 10 -65.499 30s-27.5 43 -27.5 69c0 30 15.667 56 47 78c17.333 12 72.333 45 165 99z" />
    <glyph glyph-name="ntilde" unicode="&#xf1;" horiz-adv-x="1072" 
d="M906 -71c-57.333 0 -89.668 31.3291 -97.001 93.9961l-28 219c-9.33301 78 -14 151 -14 219c0 18.667 1.16699 50.334 3.5 95.001s3.5 76.334 3.5 95.001c0 144 -26.667 216 -80 216c-74.667 0 -146 -44.333 -214 -133c-61.333 -80.667 -109.333 -182.667 -144 -306
c-1.33301 -26 -4.33301 -58.667 -9 -98c-4 -33.333 -6 -65.666 -6 -96.999c0 -20 2 -50 6 -90s6 -70 6 -90c0 -30 -9.16699 -54.333 -27.5 -73s-41.833 -28 -70.5 -28c-29.333 0 -53 9.33301 -71 28s-27 43 -27 73c0 20 -2.16699 50 -6.5 90s-6.5 70 -6.5 90
c0 68.667 4.83301 163.834 14.5 285.501s14.5 216.834 14.5 285.501c0 21.333 -1.16699 53 -3.5 95s-3.5 73.667 -3.5 95c0 28.667 9.5 52.167 28.5 70.5s42.5 27.5 70.5 27.5c61.333 0 95 -43.333 101 -130l3 -117c112 149.333 227 224 345 224c106.667 0 181 -47 223 -141
c28.667 -62.667 44.334 -155.334 47.001 -278.001v-101l-1 -93c0 -55.333 7.16699 -126.833 21.5 -214.5s21.5 -158.834 21.5 -213.501c0 -29.333 -9.5 -53.166 -28.5 -71.499s-42.833 -27.5 -71.5 -27.5zM431.998 1554c66.667 0 120.333 -19.334 161 -58.001l83 -106
c31.333 -38.667 68.666 -58 111.999 -58c38 0 66.333 12.333 85 37l46 88l20 59c9.33301 19.333 29.333 29 60 29c50 0 75 -24.667 75 -74c0 -24 -14.333 -64.333 -43 -121c-26.667 -53.333 -49.667 -90 -69 -110c-37.333 -38 -85 -57 -143 -57
c-87.333 0 -155.666 19 -204.999 57c-18 14 -47.333 49.667 -88 107c-28 38 -59.333 57 -94 57c-20.667 0 -39.167 -3.83301 -55.5 -11.5s-30.5 -19.167 -42.5 -34.5l-44 -85c-16.667 -30 -38.334 -45 -65.001 -45c-20.667 0 -38.667 6.83301 -54 20.5
s-23 30.834 -23 51.501c0 7.33301 1 15 3 23c18.667 68 52.334 123 101.001 165c52 44 112 66 180 66z" />
    <glyph glyph-name="ograve" unicode="&#xf2;" horiz-adv-x="1077" 
d="M520 -59c-112 0 -208.333 41.333 -289 124c-90 92 -137.333 215.667 -142 371c-4 150.667 34 283.334 114 398.001c93.333 135.333 223.333 203 390 203c133.333 0 234.333 -61 303 -183c54.667 -98.667 81 -217.334 79 -356.001c-2 -148 -40.667 -274.333 -116 -379
c-85.333 -118.667 -198.333 -178 -339 -178zM580 834c-98 0.666992 -174.332 -46 -228.999 -140c-43.333 -75.333 -65 -161.333 -65 -258s26.333 -172 79 -226c44 -44.667 95.667 -67 155 -67c69.333 0 129 25.333 179 76c56.667 56 86.667 131.667 90 227
c9.33301 258 -60.334 387.333 -209.001 388zM808.001 1267c0 -24 -9.5 -44.834 -28.5 -62.501s-40.5 -26.5 -64.5 -26.5c-28.667 0 -52.667 14 -72 42l-100 149c-35.333 48.667 -76.666 91.334 -123.999 128.001c-26 20 -39 43.667 -39 71c0 24 8.83301 45.5 26.5 64.5
s38.5 28.5 62.5 28.5c41.333 0 108.666 -55.333 201.999 -166c91.333 -109.333 137 -185.333 137 -228z" />
    <glyph glyph-name="oacute" unicode="&#xf3;" horiz-adv-x="1077" 
d="M520 -59c-112 0 -208.333 41.333 -289 124c-90 92 -137.333 215.667 -142 371c-4 150.667 34 283.334 114 398.001c93.333 135.333 223.333 203 390 203c133.333 0 234.333 -61 303 -183c54.667 -98.667 81 -217.334 79 -356.001c-2 -148 -40.667 -274.333 -116 -379
c-85.333 -118.667 -198.333 -178 -339 -178zM580 834c-98 0.666992 -174.332 -46 -228.999 -140c-43.333 -75.333 -65 -161.333 -65 -258s26.333 -172 79 -226c44 -44.667 95.667 -67 155 -67c69.333 0 129 25.333 179 76c56.667 56 86.667 131.667 90 227
c9.33301 258 -60.334 387.333 -209.001 388zM582.001 1187c-24 0 -45.167 9.33105 -63.5 27.998s-27.5 40 -27.5 64c0 22.667 10.333 44.334 31 65.001c28.667 28 72.334 81 131.001 159c44 57.333 93 105 147 143c18 12.667 35.667 19 53 19c24 0 45 -9.5 63 -28.5
s27 -40.5 27 -64.5c0 -26.667 -12.667 -50 -38 -70c-46.667 -37.333 -91.667 -85.666 -135 -144.999c-45.333 -62.667 -88.333 -111 -129 -145c-18.667 -16.667 -38.334 -25 -59.001 -25z" />
    <glyph glyph-name="ocircumflex" unicode="&#xf4;" horiz-adv-x="1077" 
d="M520 -59c-112 0 -208.333 41.333 -289 124c-90 92 -137.333 215.667 -142 371c-4 150.667 34 283.334 114 398.001c93.333 135.333 223.333 203 390 203c133.333 0 234.333 -61 303 -183c54.667 -98.667 81 -217.334 79 -356.001c-2 -148 -40.667 -274.333 -116 -379
c-85.333 -118.667 -198.333 -178 -339 -178zM580 834c-98 0.666992 -174.332 -46 -228.999 -140c-43.333 -75.333 -65 -161.333 -65 -258s26.333 -172 79 -226c44 -44.667 95.667 -67 155 -67c69.333 0 129 25.333 179 76c56.667 56 86.667 131.667 90 227
c9.33301 258 -60.334 387.333 -209.001 388zM568.001 1690c36.667 0 80.666 -22.333 131.999 -67c16 -14 52.333 -51.333 109 -112l159 -170c17.333 -20 26 -40.333 26 -61c0 -24 -9.16699 -45.167 -27.5 -63.5s-39.833 -27.5 -64.5 -27.5c-22 0 -43 9.66699 -63 29
c-53.333 60 -136.666 146.667 -249.999 260c-169.333 -208 -278 -312 -326 -312c-24 0 -45.167 9.33301 -63.5 28s-27.5 40 -27.5 64c0 23.333 10 45 30 65c37.333 36 139 148 305 336c18 20.667 38.333 31 61 31z" />
    <glyph glyph-name="otilde" unicode="&#xf5;" horiz-adv-x="1077" 
d="M520 -59c-112 0 -208.333 41.333 -289 124c-90 92 -137.333 215.667 -142 371c-4 150.667 34 283.334 114 398.001c93.333 135.333 223.333 203 390 203c133.333 0 234.333 -61 303 -183c54.667 -98.667 81 -217.334 79 -356.001c-2 -148 -40.667 -274.333 -116 -379
c-85.333 -118.667 -198.333 -178 -339 -178zM580 834c-98 0.666992 -174.332 -46 -228.999 -140c-43.333 -75.333 -65 -161.333 -65 -258s26.333 -172 79 -226c44 -44.667 95.667 -67 155 -67c69.333 0 129 25.333 179 76c56.667 56 86.667 131.667 90 227
c9.33301 258 -60.334 387.333 -209.001 388zM451.001 1554c66.667 0 120.333 -19.334 161 -58.001l83 -106c31.333 -38.667 68.666 -58 111.999 -58c38 0 66.333 12.333 85 37l46 88l20 59c9.33301 19.333 29.333 29 60 29c50 0 75 -24.667 75 -74
c0 -24 -14.333 -64.333 -43 -121c-26.667 -53.333 -49.667 -90 -69 -110c-37.333 -38 -85 -57 -143 -57c-87.333 0 -155.666 19 -204.999 57c-18 14 -47.333 49.667 -88 107c-28 38 -59.333 57 -94 57c-20.667 0 -39.167 -3.83301 -55.5 -11.5s-30.5 -19.167 -42.5 -34.5
l-44 -85c-16.667 -30 -38.334 -45 -65.001 -45c-20.667 0 -38.667 6.83301 -54 20.5s-23 30.834 -23 51.501c0 7.33301 1 15 3 23c18.667 68 52.334 123 101.001 165c52 44 112 66 180 66z" />
    <glyph glyph-name="odieresis" unicode="&#xf6;" horiz-adv-x="1077" 
d="M520 -59c-112 0 -208.333 41.333 -289 124c-90 92 -137.333 215.667 -142 371c-4 150.667 34 283.334 114 398.001c93.333 135.333 223.333 203 390 203c133.333 0 234.333 -61 303 -183c54.667 -98.667 81 -217.334 79 -356.001c-2 -148 -40.667 -274.333 -116 -379
c-85.333 -118.667 -198.333 -178 -339 -178zM580 834c-98 0.666992 -174.332 -46 -228.999 -140c-43.333 -75.333 -65 -161.333 -65 -258s26.333 -172 79 -226c44 -44.667 95.667 -67 155 -67c69.333 0 129 25.333 179 76c56.667 56 86.667 131.667 90 227
c9.33301 258 -60.334 387.333 -209.001 388zM376.001 1372c87.333 0 131 -35 131 -105c0 -20 -14.667 -39.333 -44 -58c-26.667 -16.667 -51.667 -25 -75 -25c-82 0 -123 34.333 -123 103c0 19.333 12.5 38.333 37.5 57s49.5 28 73.5 28zM915.001 1380
c22.667 0 45.666 -10.5 68.999 -31.5s35 -41.5 35 -61.5c0 -61.333 -47.667 -92 -143 -92c-27.333 0 -51.666 7 -72.999 21c-24 16 -36 37 -36 63c0 46 15 75.667 45 89c16.667 8 51 12 103 12z" />
    <glyph glyph-name="divide" unicode="&#xf7;" horiz-adv-x="984" 
d="M627 732c13.333 0 33.665 0.833008 60.998 2.5s47.666 2.5 60.999 2.5c109.333 0 164 -31.333 164 -94c0 -24.667 -8.33301 -46.167 -25 -64.5s-37 -27.5 -61 -27.5c-8 0 -20 1.33301 -36 4s-28.333 4 -37 4c-61.333 0 -153.166 -2.16699 -275.499 -6.5
s-214.166 -6.5 -275.499 -6.5c-103.333 0 -155 30.667 -155 92c0 42 17 68.333 51 79c14.667 4.66699 49.334 7 104.001 7c38.667 0 97 2.16699 175 6.5s136.667 6.5 176 6.5c8 0 20.167 -0.833008 36.5 -2.5s28.5 -2.5 36.5 -2.5zM452.999 1140c59.333 0 89 -29.667 89 -89
s-30.333 -89 -91 -89c-60 0 -90 29.667 -90 89s30.667 89 92 89zM379.999 276c0 24.667 8.66699 45.834 26 63.501s38.333 26.5 63 26.5s45.667 -8.83301 63 -26.5s26 -38.834 26 -63.501c0 -24 -8.66699 -44.833 -26 -62.5s-38.333 -26.5 -63 -26.5
s-45.667 8.83301 -63 26.5s-26 38.5 -26 62.5z" />
    <glyph glyph-name="oslash" unicode="&#xf8;" horiz-adv-x="1077" 
d="M767 662l-405 -455.001c44 -42.667 94.667 -64 152 -64c69.333 0 129 25.333 179 76c56.667 56.667 86.667 132.334 90 227.001c3.33301 86.667 -2 158.667 -16 216zM301 303.999l412 470.999c-34 38.667 -80.333 58.334 -139 59.001c-98 0.666992 -174 -46 -228 -140
c-44 -75.333 -66 -161.333 -66 -258c0 -49.333 7 -93.333 21 -132zM125 -52.002c-17.333 0 -33.6689 5.66699 -49.002 17s-22.666 24.666 -21.999 39.999c2 34 30 76 84 126c6 5.33301 13 12 21 20c-47.333 80.667 -72.666 175.667 -75.999 285
c-4 150.667 34 283.334 114 398.001c93.333 135.333 223.333 203 390 203c104 0 188.667 -37.667 254 -113l16 18c60 69.333 97.667 104 113 104c16 0 30 -6.33301 42 -19s18 -27 18 -43c0 -13.333 -29 -54.333 -87 -123c-2.66699 -3.33301 -14.667 -17 -36 -41
c43.333 -93.333 64 -200.666 62 -321.999c-2 -148 -40.667 -274.333 -116 -379c-85.333 -118.667 -198.333 -178 -339 -178c-108.667 0 -202.667 39 -282 117c-13.333 -14.667 -21 -23.334 -23 -26.001c-41.333 -56 -69.333 -84 -84 -84z" />
    <glyph glyph-name="ugrave" unicode="&#xf9;" 
d="M955 584c0 -48 0.333984 -120.002 1.00098 -216.002s1 -168 1 -216c0 -14.667 1.16699 -37 3.5 -67s3.5 -52.333 3.5 -67c0 -28.667 -9.66699 -52.167 -29 -70.5s-43 -27.5 -71 -27.5c-51.333 0 -84 31.667 -98 95c-83.333 -43.333 -179.333 -65 -288 -65
c-87.333 0 -159.666 19.333 -216.999 58c-63.333 42.667 -101 105 -113 187c-26 176.667 -39 334 -39 472c0 91.333 10 195.333 30 312c9.33301 58 41 87 95 87c28.667 0 52.667 -9.16699 72 -27.5s29 -41.833 29 -70.5c0 -30.667 -4.83301 -79.667 -14.5 -147
s-14.5 -118.666 -14.5 -153.999c0 -111.333 3.66699 -206.666 11 -285.999s18.333 -143 33 -191c22 -12 43.667 -21.167 65 -27.5s42.333 -9.5 63 -9.5c89.333 0 183.666 14.333 282.999 43l-1 203l-2 194c0 144 6.33301 269 19 375c7.33301 61.333 39.666 92 96.999 92
c28.667 0 52.667 -9.33301 72 -28s28.333 -42 27 -70zM766.001 1275c0 -24 -9.5 -44.834 -28.5 -62.501s-40.5 -26.5 -64.5 -26.5c-28.667 0 -52.667 14 -72 42l-100 149c-35.333 48.667 -76.666 91.334 -123.999 128.001c-26 20 -39 43.667 -39 71
c0 24 8.83301 45.5 26.5 64.5s38.5 28.5 62.5 28.5c41.333 0 108.666 -55.333 201.999 -166c91.333 -109.333 137 -185.333 137 -228z" />
    <glyph glyph-name="uacute" unicode="&#xfa;" 
d="M955 584c0 -48 0.333984 -120.002 1.00098 -216.002s1 -168 1 -216c0 -14.667 1.16699 -37 3.5 -67s3.5 -52.333 3.5 -67c0 -28.667 -9.66699 -52.167 -29 -70.5s-43 -27.5 -71 -27.5c-51.333 0 -84 31.667 -98 95c-83.333 -43.333 -179.333 -65 -288 -65
c-87.333 0 -159.666 19.333 -216.999 58c-63.333 42.667 -101 105 -113 187c-26 176.667 -39 334 -39 472c0 91.333 10 195.333 30 312c9.33301 58 41 87 95 87c28.667 0 52.667 -9.16699 72 -27.5s29 -41.833 29 -70.5c0 -30.667 -4.83301 -79.667 -14.5 -147
s-14.5 -118.666 -14.5 -153.999c0 -111.333 3.66699 -206.666 11 -285.999s18.333 -143 33 -191c22 -12 43.667 -21.167 65 -27.5s42.333 -9.5 63 -9.5c89.333 0 183.666 14.333 282.999 43l-1 203l-2 194c0 144 6.33301 269 19 375c7.33301 61.333 39.666 92 96.999 92
c28.667 0 52.667 -9.33301 72 -28s28.333 -42 27 -70zM570.001 1187c-24 0 -45.167 9.33105 -63.5 27.998s-27.5 40 -27.5 64c0 22.667 10.333 44.334 31 65.001c28.667 28 72.334 81 131.001 159c44 57.333 93 105 147 143c18 12.667 35.667 19 53 19
c24 0 45 -9.5 63 -28.5s27 -40.5 27 -64.5c0 -26.667 -12.667 -50 -38 -70c-46.667 -37.333 -91.667 -85.666 -135 -144.999c-45.333 -62.667 -88.333 -111 -129 -145c-18.667 -16.667 -38.334 -25 -59.001 -25z" />
    <glyph glyph-name="ucircumflex" unicode="&#xfb;" 
d="M955 584c0 -48 0.333984 -120.002 1.00098 -216.002s1 -168 1 -216c0 -14.667 1.16699 -37 3.5 -67s3.5 -52.333 3.5 -67c0 -28.667 -9.66699 -52.167 -29 -70.5s-43 -27.5 -71 -27.5c-51.333 0 -84 31.667 -98 95c-83.333 -43.333 -179.333 -65 -288 -65
c-87.333 0 -159.666 19.333 -216.999 58c-63.333 42.667 -101 105 -113 187c-26 176.667 -39 334 -39 472c0 91.333 10 195.333 30 312c9.33301 58 41 87 95 87c28.667 0 52.667 -9.16699 72 -27.5s29 -41.833 29 -70.5c0 -30.667 -4.83301 -79.667 -14.5 -147
s-14.5 -118.666 -14.5 -153.999c0 -111.333 3.66699 -206.666 11 -285.999s18.333 -143 33 -191c22 -12 43.667 -21.167 65 -27.5s42.333 -9.5 63 -9.5c89.333 0 183.666 14.333 282.999 43l-1 203l-2 194c0 144 6.33301 269 19 375c7.33301 61.333 39.666 92 96.999 92
c28.667 0 52.667 -9.33301 72 -28s28.333 -42 27 -70zM520.001 1690c36.667 0 80.666 -22.333 131.999 -67c16 -14 52.333 -51.333 109 -112l159 -170c17.333 -20 26 -40.333 26 -61c0 -24 -9.16699 -45.167 -27.5 -63.5s-39.833 -27.5 -64.5 -27.5
c-22 0 -43 9.66699 -63 29c-53.333 60 -136.666 146.667 -249.999 260c-169.333 -208 -278 -312 -326 -312c-24 0 -45.167 9.33301 -63.5 28s-27.5 40 -27.5 64c0 23.333 10 45 30 65c37.333 36 139 148 305 336c18 20.667 38.333 31 61 31z" />
    <glyph glyph-name="udieresis" unicode="&#xfc;" 
d="M955 584c0 -48 0.333984 -120.002 1.00098 -216.002s1 -168 1 -216c0 -14.667 1.16699 -37 3.5 -67s3.5 -52.333 3.5 -67c0 -28.667 -9.66699 -52.167 -29 -70.5s-43 -27.5 -71 -27.5c-51.333 0 -84 31.667 -98 95c-83.333 -43.333 -179.333 -65 -288 -65
c-87.333 0 -159.666 19.333 -216.999 58c-63.333 42.667 -101 105 -113 187c-26 176.667 -39 334 -39 472c0 91.333 10 195.333 30 312c9.33301 58 41 87 95 87c28.667 0 52.667 -9.16699 72 -27.5s29 -41.833 29 -70.5c0 -30.667 -4.83301 -79.667 -14.5 -147
s-14.5 -118.666 -14.5 -153.999c0 -111.333 3.66699 -206.666 11 -285.999s18.333 -143 33 -191c22 -12 43.667 -21.167 65 -27.5s42.333 -9.5 63 -9.5c89.333 0 183.666 14.333 282.999 43l-1 203l-2 194c0 144 6.33301 269 19 375c7.33301 61.333 39.666 92 96.999 92
c28.667 0 52.667 -9.33301 72 -28s28.333 -42 27 -70zM331.001 1464c87.333 0 131 -35 131 -105c0 -20 -14.667 -39.333 -44 -58c-26.667 -16.667 -51.667 -25 -75 -25c-82 0 -123 34.333 -123 103c0 19.333 12.5 38.333 37.5 57s49.5 28 73.5 28zM870.001 1472
c22.667 0 45.666 -10.5 68.999 -31.5s35 -41.5 35 -61.5c0 -61.333 -47.667 -92 -143 -92c-27.333 0 -51.666 7 -72.999 21c-24 16 -36 37 -36 63c0 46 15 75.667 45 89c16.667 8 51 12 103 12z" />
    <glyph glyph-name="yacute" unicode="&#xfd;" horiz-adv-x="1066" 
d="M1011 892l-346.001 -747.999c-85.333 -182 -150.666 -334.333 -195.999 -457l-66 -194c-17.333 -48 -47.333 -72 -90 -72c-28 0 -52.167 9.16699 -72.5 27.5s-30.5 41.166 -30.5 68.499c0 66.667 72 259.667 216 579l-358 689l-45 73c-18 30.667 -27 56.334 -27 77.001
c0 27.333 10.5 51.333 31.5 72s44.5 31 70.5 31c30.667 0 54.334 -11.667 71.001 -35c113.333 -157.333 235 -381.333 365 -672l148 345c53.333 119.333 104.666 222 153.999 308c21.333 37.333 49.333 56 84 56c27.333 0 51.5 -9.66699 72.5 -29s31.5 -42.333 31.5 -69
c0 -14.667 -4.33301 -31.334 -13 -50.001zM426.999 1187c-24 0 -45.167 9.33105 -63.5 27.998s-27.5 40 -27.5 64c0 22.667 10.333 44.334 31 65.001c28.667 28 72.334 81 131.001 159c44 57.333 93 105 147 143c18 12.667 35.667 19 53 19c24 0 45 -9.5 63 -28.5
s27 -40.5 27 -64.5c0 -26.667 -12.667 -50 -38 -70c-46.667 -37.333 -91.667 -85.666 -135 -144.999c-45.333 -62.667 -88.333 -111 -129 -145c-18.667 -16.667 -38.334 -25 -59.001 -25z" />
    <glyph glyph-name="thorn" unicode="&#xfe;" horiz-adv-x="1095" 
d="M564 -35c-66.667 0 -140 10.667 -220 32l-2 -478c0 -29.333 -9.16699 -53.333 -27.5 -72s-41.833 -28 -70.5 -28s-52.167 9.33301 -70.5 28s-27.5 42.667 -27.5 72l3 400v399c-2 146 -7 279 -15 399c-14.667 222.667 -22 421.667 -22 597c0 48 8.66699 88.333 26 121
c20 39.333 49 59 87 59c25.333 0 46.833 -9.16699 64.5 -27.5s26.5 -40.833 26.5 -67.5l-2 -485c114.667 78.667 221 118 319 118c136.667 0 236.667 -60.667 300 -182c50 -96 75 -223 75 -381c0 -144 -38.667 -262.667 -116 -356c-82 -98.667 -191.333 -148 -328 -148z
M633 832c-61.333 0 -116.668 -13.668 -166.001 -41.001c-35.333 -19.333 -80 -54.666 -134 -105.999c8.66699 -151.333 13 -310.333 13 -477c72.667 -28 145.334 -42 218.001 -42c83.333 0 147 31 191 93c38 54 57 124 57 210c0 242 -59.667 363 -179 363z" />
    <glyph glyph-name="ydieresis" unicode="&#xff;" horiz-adv-x="883" 
d="M1011 892l-346.001 -747.999c-85.333 -182 -150.666 -334.333 -195.999 -457l-66 -194c-17.333 -48 -47.333 -72 -90 -72c-28 0 -52.167 9.16699 -72.5 27.5s-30.5 41.166 -30.5 68.499c0 66.667 72 259.667 216 579l-358 689l-45 73c-18 30.667 -27 56.334 -27 77.001
c0 27.333 10.5 51.333 31.5 72s44.5 31 70.5 31c30.667 0 54.334 -11.667 71.001 -35c113.333 -157.333 235 -381.333 365 -672l148 345c53.333 119.333 104.666 222 153.999 308c21.333 37.333 49.333 56 84 56c27.333 0 51.5 -9.66699 72.5 -29s31.5 -42.333 31.5 -69
c0 -14.667 -4.33301 -31.334 -13 -50.001zM242.999 1372c87.333 0 131 -35 131 -105c0 -20 -14.667 -39.333 -44 -58c-26.667 -16.667 -51.667 -25 -75 -25c-82 0 -123 34.333 -123 103c0 19.333 12.5 38.333 37.5 57s49.5 28 73.5 28zM781.999 1380
c22.667 0 45.666 -10.5 68.999 -31.5s35 -41.5 35 -61.5c0 -61.333 -47.667 -92 -143 -92c-27.333 0 -51.666 7 -72.999 21c-24 16 -36 37 -36 63c0 46 15 75.667 45 89c16.667 8 51 12 103 12z" />
    <glyph glyph-name="Amacron" unicode="&#x100;" horiz-adv-x="1498" 
d="M1250 -30c-61.333 0 -114.666 78.667 -159.999 236c-17.333 60 -39 165 -65 315c-68 -9.33301 -157 -26 -267 -50l-266 -55c-33.333 -87.333 -90.333 -215 -171 -383c-21.333 -37.333 -50.333 -56 -87 -56c-26.667 0 -50.5 9.66699 -71.5 29s-31.5 43.333 -31.5 72
c0 32 50.333 153.667 151 365c-11.333 17.333 -17 37.333 -17 60c0 54 32.667 88.667 98 104c76 142.667 172 306.667 288 492c158 252.667 256.333 379 295 379c52.667 0 88.667 -36.667 108 -110l63 -336l149 -695l57 -158c19.333 -54 29 -90 29 -108
c0 -28.667 -10.333 -52.667 -31 -72s-44.334 -29 -71.001 -29zM897 1113l-286 -461c80.667 20.667 203 45.667 367 75zM753 1794c26 0 65.5 -1.5 118.5 -4.5s92.5 -4.5 118.5 -4.5c27.333 0 68 0.666992 122 2s94.333 2 121 2c52 0 78 -25 78 -75
c0 -40 -21.667 -64.333 -65 -73l-112 -5h-155c-32 0 -80 1 -144 3s-112.333 3 -145 3c-48 0 -72 25.333 -72 76c0 34 15.333 56.333 46 67c16 6 45.667 9 89 9z" />
    <glyph glyph-name="amacron" unicode="&#x101;" horiz-adv-x="1048" 
d="M920 -66c-12.667 0 -35.6641 14.668 -68.9971 44.001c-30 27.333 -52.333 51.666 -67 72.999c-64 -34.667 -120.333 -60.834 -169 -78.501s-89.334 -26.5 -122.001 -26.5c-156 0 -269.667 44 -341 132c-67.333 82.667 -101 209.334 -101 380.001
c0 161.333 55.5 299.333 166.5 414s243.5 172 397.5 172c58 0 123 -15 195 -45c90.667 -37.333 136 -82.333 136 -135c0 -18 -6.66699 -34 -20 -48c-6.66699 -25.333 -11.834 -67 -15.501 -125s-5.83398 -132.333 -6.50098 -223c-0.666992 -82.667 5 -148 17 -196
c6.66699 -29.333 27.667 -88 63 -176c4.66699 -12 12.334 -29.667 23.001 -53l6 -17c0 -26.667 -9.33301 -48.667 -28 -66s-40.334 -26 -65.001 -26zM712.003 629.001c0 28.667 1.83496 59.833 5.50195 93.5s9.16699 69.5 16.5 107.5c-24.667 12.667 -45.834 22 -63.501 28
s-31.834 9 -42.501 9c-103.333 0 -192.5 -42.167 -267.5 -126.5s-112.5 -181.5 -112.5 -291.5c0 -109.333 19.333 -191.333 58 -246s96.667 -82 174 -82c64 0 118.333 11.667 163 35c24 12.667 57.667 38 101 76c-21.333 176.667 -32 309 -32 397zM393.005 1344
c26 0 65.5 -1.5 118.5 -4.5s92.5 -4.5 118.5 -4.5c27.333 0 68 0.666992 122 2s94.333 2 121 2c52 0 78 -25 78 -75c0 -40 -21.667 -64.333 -65 -73l-112 -5h-155c-32 0 -80 1 -144 3s-112.333 3 -145 3c-48 0 -72 25.333 -72 76c0 34 15.333 56.333 46 67
c16 6 45.667 9 89 9z" />
    <glyph glyph-name="Abreve" unicode="&#x102;" horiz-adv-x="1498" 
d="M1250 -30c-61.333 0 -114.666 78.667 -159.999 236c-17.333 60 -39 165 -65 315c-68 -9.33301 -157 -26 -267 -50l-266 -55c-33.333 -87.333 -90.333 -215 -171 -383c-21.333 -37.333 -50.333 -56 -87 -56c-26.667 0 -50.5 9.66699 -71.5 29s-31.5 43.333 -31.5 72
c0 32 50.333 153.667 151 365c-11.333 17.333 -17 37.333 -17 60c0 54 32.667 88.667 98 104c76 142.667 172 306.667 288 492c158 252.667 256.333 379 295 379c52.667 0 88.667 -36.667 108 -110l63 -336l149 -695l57 -158c19.333 -54 29 -90 29 -108
c0 -28.667 -10.333 -52.667 -31 -72s-44.334 -29 -71.001 -29zM897 1113l-286 -461c80.667 20.667 203 45.667 367 75zM872 1779c195.333 0 307.331 53.333 335.998 160c11.333 42 35.333 63 72 63c21.333 0 39.833 -7 55.5 -21s22.834 -31.333 21.501 -52l-2 -14
c-8 -101.333 -66.667 -177.333 -176 -228c-85.333 -38.667 -187.666 -58 -306.999 -58c-94.667 0 -177.667 32 -249 96c-73.333 65.333 -110 145 -110 239c0 50 24.667 75 74 75c50 0 75 -25 75 -75c0 -52 22.333 -96.333 67 -133c42 -34.667 89.667 -52 143 -52z" />
    <glyph glyph-name="abreve" unicode="&#x103;" horiz-adv-x="1048" 
d="M920 -66c-12.667 0 -35.6641 14.668 -68.9971 44.001c-30 27.333 -52.333 51.666 -67 72.999c-64 -34.667 -120.333 -60.834 -169 -78.501s-89.334 -26.5 -122.001 -26.5c-156 0 -269.667 44 -341 132c-67.333 82.667 -101 209.334 -101 380.001
c0 161.333 55.5 299.333 166.5 414s243.5 172 397.5 172c58 0 123 -15 195 -45c90.667 -37.333 136 -82.333 136 -135c0 -18 -6.66699 -34 -20 -48c-6.66699 -25.333 -11.834 -67 -15.501 -125s-5.83398 -132.333 -6.50098 -223c-0.666992 -82.667 5 -148 17 -196
c6.66699 -29.333 27.667 -88 63 -176c4.66699 -12 12.334 -29.667 23.001 -53l6 -17c0 -26.667 -9.33301 -48.667 -28 -66s-40.334 -26 -65.001 -26zM712.003 629.001c0 28.667 1.83496 59.833 5.50195 93.5s9.16699 69.5 16.5 107.5c-24.667 12.667 -45.834 22 -63.501 28
s-31.834 9 -42.501 9c-103.333 0 -192.5 -42.167 -267.5 -126.5s-112.5 -181.5 -112.5 -291.5c0 -109.333 19.333 -191.333 58 -246s96.667 -82 174 -82c64 0 118.333 11.667 163 35c24 12.667 57.667 38 101 76c-21.333 176.667 -32 309 -32 397zM502.005 1329
c195.333 0 307.331 53.333 335.998 160c11.333 42 35.333 63 72 63c21.333 0 39.833 -7 55.5 -21s22.834 -31.333 21.501 -52l-2 -14c-8 -101.333 -66.667 -177.333 -176 -228c-85.333 -38.667 -187.666 -58 -306.999 -58c-94.667 0 -177.667 32 -249 96
c-73.333 65.333 -110 145 -110 239c0 50 24.667 75 74 75c50 0 75 -25 75 -75c0 -52 22.333 -96.333 67 -133c42 -34.667 89.667 -52 143 -52z" />
    <glyph glyph-name="Aogonek" unicode="&#x104;" horiz-adv-x="1498" 
d="M1571 -225c0 -42 -38.666 -74.001 -115.999 -96.001c-54.667 -15.333 -111.334 -23 -170.001 -23c-65.333 0 -121.666 28.667 -168.999 86c-45.333 54 -68 114.333 -68 181c0 58.667 26.667 116.334 80 173.001c-32.667 75.333 -67 217 -103 425
c-68 -9.33301 -157 -26 -267 -50c-133.333 -28.667 -222 -47 -266 -55c-33.333 -87.333 -90.333 -215 -171 -383c-21.333 -37.333 -50.333 -56 -87 -56c-26.667 0 -50.5 9.66699 -71.5 29s-31.5 43.333 -31.5 72c0 32 50.333 153.667 151 365
c-11.333 17.333 -17 37.333 -17 60c0 54 32.667 88.667 98 104c76 142.667 172 306.667 288 492c158 252.667 256.333 379 295 379c52.667 0 88.667 -36.667 108 -110l63 -336c42.667 -212 92.334 -443.667 149.001 -695c0.666992 -4 19.667 -56.667 57 -158
c19.333 -54 29 -90 29 -108c0 -28.667 -10.333 -52.667 -31 -72s-44.334 -29 -71.001 -29c-10.667 0 -21.334 2.33301 -32.001 7c-14 -14.667 -21 -32.667 -21 -54c0 -24 8.66699 -49 26 -75c18 -28.667 38.667 -43 62 -43c67.333 0 125 12.333 173 37
c14.667 8 27.667 12 39 12c20.667 0 38.167 -8 52.5 -24s21.5 -34.333 21.5 -55zM978.001 726.999l-81 386.001c-66 -100.667 -161.333 -254.334 -286 -461.001c80.667 20.667 203 45.667 367 75z" />
    <glyph glyph-name="aogonek" unicode="&#x105;" horiz-adv-x="1048" 
d="M1310 -225c0 -42 -38.6689 -74.001 -116.002 -96.001c-54.667 -15.333 -111.334 -23 -170.001 -23c-65.333 0 -121.666 28.667 -168.999 86c-45.333 54 -68 114.333 -68 181c0 38.667 4.33301 74.667 13 108c-6.66699 7.33301 -12 14 -16 20
c-128.667 -70 -225.667 -105 -291 -105c-156 0 -269.667 44 -341 132c-67.333 82.667 -101 209.334 -101 380.001c0 161.333 55.5 299.333 166.5 414s243.5 172 397.5 172c58 0 123 -15 195 -45c90.667 -37.333 136 -82.333 136 -135c0 -18 -6.66699 -34 -20 -48
c-13.333 -51.333 -20.666 -167.333 -21.999 -348c-0.666992 -82.667 5 -148 17 -196c6.66699 -29.333 27.667 -88 63 -176c4.66699 -12 12.334 -29.667 23.001 -53c4 -9.33301 6 -15 6 -17c0 -50.667 -25.333 -80.667 -76 -90l-1 -13c0 -24 8.33301 -49 25 -75
c18.667 -28.667 39.667 -43 63 -43c67.333 0 125 12.333 173 37c14.667 8 27.667 12 39 12c20.667 0 38.167 -8 52.5 -24s21.5 -34.333 21.5 -55zM743.998 231.999c-21.333 176.667 -32 309 -32 397c0 57.333 7.33301 124.333 22 201c-50 24.667 -85.333 37 -106 37
c-103.333 0 -192.5 -42.167 -267.5 -126.5s-112.5 -181.5 -112.5 -291.5c0 -218.667 77.333 -328 232 -328c64 0 118.333 11.667 163 35c24 12.667 57.667 38 101 76z" />
    <glyph glyph-name="Cacute" unicode="&#x106;" horiz-adv-x="1234" 
d="M1104 1122c-42.667 0 -74.666 25.001 -95.999 75.001c-18.667 42.667 -36 68.667 -52 78c-14 7.33301 -48.667 11 -104 11c-96.667 0 -204 -74 -322 -222c-160 -198.667 -240 -387 -240 -565c0 -86 27.667 -160 83 -222c56.667 -64 125 -96 205 -96
c68.667 0 137.667 17.667 207 53c38.667 20 98 59.333 178 118c38 28 66.667 42 86 42c28.667 0 52.667 -10.833 72 -32.5s29 -45.834 29 -72.501c0 -30 -12.667 -56.333 -38 -79c-176 -156 -354 -234 -534 -234c-138 0 -254.667 53 -350 159c-92 102.667 -138 224 -138 364
c0 226 94.667 457.667 284 695c158 198 317.333 297 478 297c32.667 0 62 -1.5 88 -4.5s49 -7.83301 69 -14.5c23.333 34 53.666 51 90.999 51c46 0 75 -30.333 87 -91c10.667 -54 16 -120.333 16 -199c0 -27.333 -7.33301 -51.333 -22 -72c-18 -26 -43.667 -39 -77 -39z
M734.001 1637c-24 0 -45.167 9.33105 -63.5 27.998s-27.5 40 -27.5 64c0 22.667 10.333 44.334 31 65.001c28.667 28 72.334 81 131.001 159c44 57.333 93 105 147 143c18 12.667 35.667 19 53 19c24 0 45 -9.5 63 -28.5s27 -40.5 27 -64.5c0 -26.667 -12.667 -50 -38 -70
c-46.667 -37.333 -91.667 -85.666 -135 -144.999c-45.333 -62.667 -88.333 -111 -129 -145c-18.667 -16.667 -38.334 -25 -59.001 -25z" />
    <glyph glyph-name="cacute" unicode="&#x107;" horiz-adv-x="1052" 
d="M591 -63c-136.667 0 -250.668 41.332 -342.001 123.999c-96 86.667 -144 201 -144 343c0 135.333 45 275 135 419c100 160 212.667 240 338 240c65.333 0 138.333 -15.333 219 -46c102 -39.333 153 -87.333 153 -144c0 -25.333 -8.33301 -47.833 -25 -67.5
s-37.334 -29.5 -62.001 -29.5c-19.333 0 -36.166 5.83301 -50.499 17.5l-41.5 34.5c-39.333 31.333 -103.666 47 -192.999 47c-68 0 -135.333 -60.667 -202 -182c-60.667 -111.333 -91 -207.666 -91 -288.999c0 -88 30 -157.333 90 -208c56 -47.333 128 -71 216 -71
c40 0 82.667 10.667 128 32l116 62c20 10.667 34.333 16 43 16c24.667 0 46 -9.83301 64 -29.5s27 -42.167 27 -67.5c0 -48.667 -51.333 -95.667 -154 -141c-90 -40 -164.667 -60 -224 -60zM513.999 1187c-24 0 -45.167 9.33105 -63.5 27.998s-27.5 40 -27.5 64
c0 22.667 10.333 44.334 31 65.001c28.667 28 72.334 81 131.001 159c44 57.333 93 105 147 143c18 12.667 35.667 19 53 19c24 0 45 -9.5 63 -28.5s27 -40.5 27 -64.5c0 -26.667 -12.667 -50 -38 -70c-46.667 -37.333 -91.667 -85.666 -135 -144.999
c-45.333 -62.667 -88.333 -111 -129 -145c-18.667 -16.667 -38.334 -25 -59.001 -25z" />
    <glyph glyph-name="Ccircumflex" unicode="&#x108;" horiz-adv-x="1234" 
d="M1104 1122c-42.667 0 -74.666 25.001 -95.999 75.001c-18.667 42.667 -36 68.667 -52 78c-14 7.33301 -48.667 11 -104 11c-96.667 0 -204 -74 -322 -222c-160 -198.667 -240 -387 -240 -565c0 -86 27.667 -160 83 -222c56.667 -64 125 -96 205 -96
c68.667 0 137.667 17.667 207 53c38.667 20 98 59.333 178 118c38 28 66.667 42 86 42c28.667 0 52.667 -10.833 72 -32.5s29 -45.834 29 -72.501c0 -30 -12.667 -56.333 -38 -79c-176 -156 -354 -234 -534 -234c-138 0 -254.667 53 -350 159c-92 102.667 -138 224 -138 364
c0 226 94.667 457.667 284 695c158 198 317.333 297 478 297c32.667 0 62 -1.5 88 -4.5s49 -7.83301 69 -14.5c23.333 34 53.666 51 90.999 51c46 0 75 -30.333 87 -91c10.667 -54 16 -120.333 16 -199c0 -27.333 -7.33301 -51.333 -22 -72c-18 -26 -43.667 -39 -77 -39z
M780.001 2140c36.667 0 80.666 -22.333 131.999 -67c16 -14 52.333 -51.333 109 -112l159 -170c17.333 -20 26 -40.333 26 -61c0 -24 -9.16699 -45.167 -27.5 -63.5s-39.833 -27.5 -64.5 -27.5c-22 0 -43 9.66699 -63 29c-53.333 60 -136.666 146.667 -249.999 260
c-169.333 -208 -278 -312 -326 -312c-24 0 -45.167 9.33301 -63.5 28s-27.5 40 -27.5 64c0 23.333 10 45 30 65c37.333 36 139 148 305 336c18 20.667 38.333 31 61 31z" />
    <glyph glyph-name="ccircumflex" unicode="&#x109;" horiz-adv-x="1052" 
d="M591 -63c-136.667 0 -250.668 41.332 -342.001 123.999c-96 86.667 -144 201 -144 343c0 135.333 45 275 135 419c100 160 212.667 240 338 240c65.333 0 138.333 -15.333 219 -46c102 -39.333 153 -87.333 153 -144c0 -25.333 -8.33301 -47.833 -25 -67.5
s-37.334 -29.5 -62.001 -29.5c-19.333 0 -36.166 5.83301 -50.499 17.5l-41.5 34.5c-39.333 31.333 -103.666 47 -192.999 47c-68 0 -135.333 -60.667 -202 -182c-60.667 -111.333 -91 -207.666 -91 -288.999c0 -88 30 -157.333 90 -208c56 -47.333 128 -71 216 -71
c40 0 82.667 10.667 128 32l116 62c20 10.667 34.333 16 43 16c24.667 0 46 -9.83301 64 -29.5s27 -42.167 27 -67.5c0 -48.667 -51.333 -95.667 -154 -141c-90 -40 -164.667 -60 -224 -60zM589.999 1590c36.667 0 80.666 -22.333 131.999 -67
c16 -14 52.333 -51.333 109 -112l159 -170c17.333 -20 26 -40.333 26 -61c0 -24 -9.16699 -45.167 -27.5 -63.5s-39.833 -27.5 -64.5 -27.5c-22 0 -43 9.66699 -63 29c-53.333 60 -136.666 146.667 -249.999 260c-169.333 -208 -278 -312 -326 -312
c-24 0 -45.167 9.33301 -63.5 28s-27.5 40 -27.5 64c0 23.333 10 45 30 65c37.333 36 139 148 305 336c18 20.667 38.333 31 61 31z" />
    <glyph glyph-name="Cdot" unicode="&#x10a;" horiz-adv-x="1234" 
d="M1104 1122c-42.667 0 -74.666 25.001 -95.999 75.001c-18.667 42.667 -36 68.667 -52 78c-14 7.33301 -48.667 11 -104 11c-96.667 0 -204 -74 -322 -222c-160 -198.667 -240 -387 -240 -565c0 -86 27.667 -160 83 -222c56.667 -64 125 -96 205 -96
c68.667 0 137.667 17.667 207 53c38.667 20 98 59.333 178 118c38 28 66.667 42 86 42c28.667 0 52.667 -10.833 72 -32.5s29 -45.834 29 -72.501c0 -30 -12.667 -56.333 -38 -79c-176 -156 -354 -234 -534 -234c-138 0 -254.667 53 -350 159c-92 102.667 -138 224 -138 364
c0 226 94.667 457.667 284 695c158 198 317.333 297 478 297c32.667 0 62 -1.5 88 -4.5s49 -7.83301 69 -14.5c23.333 34 53.666 51 90.999 51c46 0 75 -30.333 87 -91c10.667 -54 16 -120.333 16 -199c0 -27.333 -7.33301 -51.333 -22 -72c-18 -26 -43.667 -39 -77 -39z
M980.001 1728c0 -24 -11.333 -45.834 -34 -65.501s-46.334 -29.5 -71.001 -29.5c-21.333 0 -49.833 16 -85.5 48s-53.5 58.333 -53.5 79c0 24.667 12 46.667 36 66c22 18.667 45.333 28 70 28c20.667 0 48.834 -16.167 84.501 -48.5s53.5 -58.166 53.5 -77.499z" />
    <glyph glyph-name="cdot" unicode="&#x10b;" horiz-adv-x="1052" 
d="M591 -63c-136.667 0 -250.668 41.332 -342.001 123.999c-96 86.667 -144 201 -144 343c0 135.333 45 275 135 419c100 160 212.667 240 338 240c65.333 0 138.333 -15.333 219 -46c102 -39.333 153 -87.333 153 -144c0 -25.333 -8.33301 -47.833 -25 -67.5
s-37.334 -29.5 -62.001 -29.5c-19.333 0 -36.166 5.83301 -50.499 17.5l-41.5 34.5c-39.333 31.333 -103.666 47 -192.999 47c-68 0 -135.333 -60.667 -202 -182c-60.667 -111.333 -91 -207.666 -91 -288.999c0 -88 30 -157.333 90 -208c56 -47.333 128 -71 216 -71
c40 0 82.667 10.667 128 32l116 62c20 10.667 34.333 16 43 16c24.667 0 46 -9.83301 64 -29.5s27 -42.167 27 -67.5c0 -48.667 -51.333 -95.667 -154 -141c-90 -40 -164.667 -60 -224 -60zM729.999 1278c0 -24 -11.333 -45.834 -34 -65.501s-46.334 -29.5 -71.001 -29.5
c-21.333 0 -49.833 16 -85.5 48s-53.5 58.333 -53.5 79c0 24.667 12 46.667 36 66c22 18.667 45.333 28 70 28c20.667 0 48.834 -16.167 84.501 -48.5s53.5 -58.166 53.5 -77.499z" />
    <glyph glyph-name="Ccaron" unicode="&#x10c;" horiz-adv-x="1234" 
d="M1104 1122c-42.667 0 -74.666 25.001 -95.999 75.001c-18.667 42.667 -36 68.667 -52 78c-14 7.33301 -48.667 11 -104 11c-96.667 0 -204 -74 -322 -222c-160 -198.667 -240 -387 -240 -565c0 -86 27.667 -160 83 -222c56.667 -64 125 -96 205 -96
c68.667 0 137.667 17.667 207 53c38.667 20 98 59.333 178 118c38 28 66.667 42 86 42c28.667 0 52.667 -10.833 72 -32.5s29 -45.834 29 -72.501c0 -30 -12.667 -56.333 -38 -79c-176 -156 -354 -234 -534 -234c-138 0 -254.667 53 -350 159c-92 102.667 -138 224 -138 364
c0 226 94.667 457.667 284 695c158 198 317.333 297 478 297c32.667 0 62 -1.5 88 -4.5s49 -7.83301 69 -14.5c23.333 34 53.666 51 90.999 51c46 0 75 -30.333 87 -91c10.667 -54 16 -120.333 16 -199c0 -27.333 -7.33301 -51.333 -22 -72c-18 -26 -43.667 -39 -77 -39z
M819.001 1809l220 197c16 13.333 32.333 20 49 20c20 0 37.667 -7.83301 53 -23.5s23 -33.5 23 -53.5s-8.66699 -38.333 -26 -55c-190 -178.667 -299.333 -268 -328 -268c-20.667 0 -42.667 12.333 -66 37l-50 62l-117 134c-55.333 68.667 -83 116.667 -83 144
c0 20 8 37.333 24 52s34.333 22 55 22c26 0 47 -13.333 63 -40c22 -36.667 83 -112.667 183 -228z" />
    <glyph glyph-name="ccaron" unicode="&#x10d;" horiz-adv-x="1234" 
d="M591 -63c-136.667 0 -250.668 41.332 -342.001 123.999c-96 86.667 -144 201 -144 343c0 135.333 45 275 135 419c100 160 212.667 240 338 240c65.333 0 138.333 -15.333 219 -46c102 -39.333 153 -87.333 153 -144c0 -25.333 -8.33301 -47.833 -25 -67.5
s-37.334 -29.5 -62.001 -29.5c-19.333 0 -36.166 5.83301 -50.499 17.5l-41.5 34.5c-39.333 31.333 -103.666 47 -192.999 47c-68 0 -135.333 -60.667 -202 -182c-60.667 -111.333 -91 -207.666 -91 -288.999c0 -88 30 -157.333 90 -208c56 -47.333 128 -71 216 -71
c40 0 82.667 10.667 128 32l116 62c20 10.667 34.333 16 43 16c24.667 0 46 -9.83301 64 -29.5s27 -42.167 27 -67.5c0 -48.667 -51.333 -95.667 -154 -141c-90 -40 -164.667 -60 -224 -60zM608.999 1359l220 197c16 13.333 32.333 20 49 20c20 0 37.667 -7.83301 53 -23.5
s23 -33.5 23 -53.5s-8.66699 -38.333 -26 -55c-190 -178.667 -299.333 -268 -328 -268c-20.667 0 -42.667 12.333 -66 37l-50 62l-117 134c-55.333 68.667 -83 116.667 -83 144c0 20 8 37.333 24 52s34.333 22 55 22c26 0 47 -13.333 63 -40
c22 -36.667 83 -112.667 183 -228z" />
    <glyph glyph-name="Dcaron" unicode="&#x10e;" horiz-adv-x="1478" 
d="M1076 7c-103.333 -70.667 -251.664 -106 -444.997 -106c-48.667 0 -104.334 7.66699 -167.001 23c-75.333 18 -132 41.333 -170 70h-10c-28.667 0 -52.667 10 -72 30s-29 44.333 -29 73c0 70 3.16699 174.833 9.5 314.5s9.5 244.5 9.5 314.5c0 78 -1.5 194.5 -4.5 349.5
s-4.5 271.5 -4.5 349.5c0 27.333 14 56 42 86s56 45 84 45c16 0 69.333 -22.333 160 -67c102.667 -50 162 -77.667 178 -83c189.333 -64.667 350.666 -164 483.999 -298c156.667 -158 235 -331.667 235 -521c0 -114 -26.833 -223.333 -80.5 -328
s-126.834 -188.667 -219.501 -252zM866.002 1065c-68 44.667 -225 121.333 -471 230l5 -288l3 -287l-16 -546c4.66699 -2 11.667 -6.33301 21 -13c58.667 -39.333 132.667 -59 222 -59c152 0 262.667 23.333 332 70c64.667 44 116.167 103.167 154.5 177.5
s57.5 151.833 57.5 232.5c0 188 -102.667 349 -308 483zM669.002 1809l220 197c16 13.333 32.333 20 49 20c20 0 37.667 -7.83301 53 -23.5s23 -33.5 23 -53.5s-8.66699 -38.333 -26 -55c-190 -178.667 -299.333 -268 -328 -268c-20.667 0 -42.667 12.333 -66 37l-50 62
l-117 134c-55.333 68.667 -83 116.667 -83 144c0 20 8 37.333 24 52s34.333 22 55 22c26 0 47 -13.333 63 -40c22 -36.667 83 -112.667 183 -228z" />
    <glyph glyph-name="dcaron" unicode="&#x10f;" horiz-adv-x="1698" 
d="M1060 883c-8 -98 -12 -195.999 -12 -293.999c0 -222 10.333 -389.667 31 -503c1.33301 -9.33301 2 -17 2 -23c0 -26.667 -9.33301 -48.667 -28 -66s-40.334 -26 -65.001 -26c-41.333 0 -71.666 30 -90.999 90c-48 -35.333 -97.833 -62 -149.5 -80s-105.5 -27 -161.5 -27
c-138 0 -252.333 46 -343 138c-93.333 94 -140 214.667 -140 362c0 178 47.167 320.667 141.5 428s216.833 161 367.5 161c77.333 0 137 -12 179 -36l94 -69c9.33301 280.667 20.333 469.667 33 567c8.66699 59.333 39 89 91 89c60.667 0 91 -32.333 91 -97
c0 -92.667 -13.333 -297.334 -40 -614.001zM616 857.001c-112 0 -196 -33.168 -252 -99.501s-84 -166.166 -84 -299.499c0 -86 30.5 -160 91.5 -222s132.5 -93 214.5 -93c56 0 103.333 10.333 142 31c22.667 12 59.667 39.667 111 83c10 8.66699 19.667 19 29 31l-3 173
l1 116l2 118c-25.333 54 -59 94.5 -101 121.5s-92.333 40.5 -151 40.5zM1507 1440c0 -64.667 -17 -134 -51 -208c-39.333 -86 -85.333 -129 -138 -129c-47.333 0 -71 24.333 -71 73c0 18.667 7.66699 39.667 23 63l40 57c10 16 18 33.667 24 53c-58 34 -87 77.333 -87 130
c0 36 12.167 65.667 36.5 89s54.833 35 91.5 35c88 0 132 -54.333 132 -163z" />
    <glyph glyph-name="Dslash" unicode="&#x110;" horiz-adv-x="1478" 
d="M631 -99c-53.333 0 -111.997 8.33398 -175.997 25.001c-70.667 18 -124.334 40.667 -161.001 68h-10c-67.333 0 -101 34.333 -101 103c0 64.667 2.33301 147.667 7 249l10 249c-8.66699 0 -23.834 -0.5 -45.501 -1.5s-38.5 -1.5 -50.5 -1.5
c-98.667 0 -148 34.333 -148 103c0 68 49.667 102 149 102c12 0 29 -0.5 51 -1.5s37.333 -1.5 46 -1.5l-5 315l-4 316c0 28 14 56.833 42 86.5s56 44.5 84 44.5c16 0 69.333 -22 160 -66c105.333 -51.333 164.666 -79.333 177.999 -84c198 -72.667 361.333 -174 490 -304
c152.667 -154.667 229 -326.334 229 -515.001c0 -114 -26.667 -223 -80 -327c-54 -106 -127.333 -190.333 -220 -253c-104 -70.667 -252.333 -106 -445 -106zM395.003 1295l8.00195 -501c28.667 0 72.167 -2.83301 130.5 -8.5s102.166 -8.5 131.499 -8.5
s53.333 -9.16699 72 -27.5s28 -42.166 28 -71.499c0 -28.667 -9.33301 -52.334 -28 -71.001s-42.334 -28 -71.001 -28c-30 0 -74.333 2.66699 -133 8s-102.667 8 -132 8l-14 -421c88 -48 169 -72 243 -72c151.333 0 262 23.333 332 70c65.333 44 117 103.333 155 178
s57 152 57 232c0 126 -44.333 238.333 -133 337c-69.333 78 -171.333 151.667 -306 221c-36 19.333 -149.333 71 -340 155z" />
    </font>
</defs>
</svg>
